  0
SECTION
  2
HEADER
  9
$ACADVER
  1
AC1015
  9
$ACADMAINTVER
 70
     6
  9
$DWGCODEPAGE
  3
ANSI_1252
  9
$INSBASE
 10
0.0
 20
0.0
 30
0.0
  9
$EXTMIN
 10
0.0
 20
0.0
 30
0.0
  9
$EXTMAX
 10
297.0000000000001
 20
210.0000000000001
 30
0.0
  9
$LIMMIN
 10
0.0
 20
0.0
  9
$LIMMAX
 10
12.0
 20
9.0
  9
$ORTHOMODE
 70
     0
  9
$REGENMODE
 70
     1
  9
$FILLMODE
 70
     1
  9
$QTEXTMODE
 70
     0
  9
$MIRRTEXT
 70
     1
  9
$LTSCALE
 40
1.0
  9
$ATTMODE
 70
     1
  9
$TEXTSIZE
 40
0.2
  9
$TRACEWID
 40
0.05
  9
$TEXTSTYLE
  7
Standard
  9
$CLAYER
  8
0
  9
$CELTYPE
  6
ByLayer
  9
$CECOLOR
 62
   256
  9
$CELTSCALE
 40
1.0
  9
$DISPSILH
 70
     0
  9
$DIMSCALE
 40
1.0
  9
$DIMASZ
 40
0.18
  9
$DIMEXO
 40
0.0625
  9
$DIMDLI
 40
0.38
  9
$DIMRND
 40
0.0
  9
$DIMDLE
 40
0.0
  9
$DIMEXE
 40
0.18
  9
$DIMTP
 40
0.0
  9
$DIMTM
 40
0.0
  9
$DIMTXT
 40
0.18
  9
$DIMCEN
 40
0.09
  9
$DIMTSZ
 40
0.0
  9
$DIMTOL
 70
     0
  9
$DIMLIM
 70
     0
  9
$DIMTIH
 70
     1
  9
$DIMTOH
 70
     1
  9
$DIMSE1
 70
     0
  9
$DIMSE2
 70
     0
  9
$DIMTAD
 70
     0
  9
$DIMZIN
 70
     0
  9
$DIMBLK
  1

  9
$DIMASO
 70
     1
  9
$DIMSHO
 70
     1
  9
$DIMPOST
  1

  9
$DIMAPOST
  1

  9
$DIMALT
 70
     0
  9
$DIMALTD
 70
     2
  9
$DIMALTF
 40
25.4
  9
$DIMLFAC
 40
1.0
  9
$DIMTOFL
 70
     0
  9
$DIMTVP
 40
0.0
  9
$DIMTIX
 70
     0
  9
$DIMSOXD
 70
     0
  9
$DIMSAH
 70
     0
  9
$DIMBLK1
  1

  9
$DIMBLK2
  1

  9
$DIMSTYLE
  2
Standard
  9
$DIMCLRD
 70
     0
  9
$DIMCLRE
 70
     0
  9
$DIMCLRT
 70
     0
  9
$DIMTFAC
 40
1.0
  9
$DIMGAP
 40
0.09
  9
$DIMJUST
 70
     0
  9
$DIMSD1
 70
     0
  9
$DIMSD2
 70
     0
  9
$DIMTOLJ
 70
     1
  9
$DIMTZIN
 70
     0
  9
$DIMALTZ
 70
     0
  9
$DIMALTTZ
 70
     0
  9
$DIMUPT
 70
     0
  9
$DIMDEC
 70
     4
  9
$DIMTDEC
 70
     4
  9
$DIMALTU
 70
     2
  9
$DIMALTTD
 70
     2
  9
$DIMTXSTY
  7
Standard
  9
$DIMAUNIT
 70
     0
  9
$DIMADEC
 70
     0
  9
$DIMALTRND
 40
0.0
  9
$DIMAZIN
 70
     0
  9
$DIMDSEP
 70
    46
  9
$DIMATFIT
 70
     3
  9
$DIMFRAC
 70
     0
  9
$DIMLDRBLK
  1

  9
$DIMLUNIT
 70
     2
  9
$DIMLWD
 70
    -2
  9
$DIMLWE
 70
    -2
  9
$DIMTMOVE
 70
     0
  9
$LUNITS
 70
     2
  9
$LUPREC
 70
     4
  9
$SKETCHINC
 40
0.1
  9
$FILLETRAD
 40
0.5
  9
$AUNITS
 70
     0
  9
$AUPREC
 70
     0
  9
$MENU
  1
.
  9
$ELEVATION
 40
0.0
  9
$PELEVATION
 40
0.0
  9
$THICKNESS
 40
0.0
  9
$LIMCHECK
 70
     0
  9
$CHAMFERA
 40
0.5
  9
$CHAMFERB
 40
0.5
  9
$CHAMFERC
 40
1.0
  9
$CHAMFERD
 40
0.0
  9
$SKPOLY
 70
     0
  9
$TDCREATE
 40
2456997.611414294
  9
$TDUCREATE
 40
2456997.569747627
  9
$TDUPDATE
 40
2456997.611414826
  9
$TDUUPDATE
 40
2456997.569748159
  9
$TDINDWG
 40
0.0000000116
  9
$TDUSRTIMER
 40
0.0000000116
  9
$USRTIMER
 70
     1
  9
$ANGBASE
 50
0.0
  9
$ANGDIR
 70
     0
  9
$PDMODE
 70
     0
  9
$PDSIZE
 40
0.0
  9
$PLINEWID
 40
0.0
  9
$SPLFRAME
 70
     0
  9
$SPLINETYPE
 70
     6
  9
$SPLINESEGS
 70
     8
  9
$HANDSEED
  5
5C0
  9
$SURFTAB1
 70
     6
  9
$SURFTAB2
 70
     6
  9
$SURFTYPE
 70
     6
  9
$SURFU
 70
     6
  9
$SURFV
 70
     6
  9
$UCSBASE
  2

  9
$UCSNAME
  2

  9
$UCSORG
 10
0.0
 20
0.0
 30
0.0
  9
$UCSXDIR
 10
1.0
 20
0.0
 30
0.0
  9
$UCSYDIR
 10
0.0
 20
1.0
 30
0.0
  9
$UCSORTHOREF
  2

  9
$UCSORTHOVIEW
 70
     0
  9
$UCSORGTOP
 10
0.0
 20
0.0
 30
0.0
  9
$UCSORGBOTTOM
 10
0.0
 20
0.0
 30
0.0
  9
$UCSORGLEFT
 10
0.0
 20
0.0
 30
0.0
  9
$UCSORGRIGHT
 10
0.0
 20
0.0
 30
0.0
  9
$UCSORGFRONT
 10
0.0
 20
0.0
 30
0.0
  9
$UCSORGBACK
 10
0.0
 20
0.0
 30
0.0
  9
$PUCSBASE
  2

  9
$PUCSNAME
  2

  9
$PUCSORG
 10
0.0
 20
0.0
 30
0.0
  9
$PUCSXDIR
 10
1.0
 20
0.0
 30
0.0
  9
$PUCSYDIR
 10
0.0
 20
1.0
 30
0.0
  9
$PUCSORTHOREF
  2

  9
$PUCSORTHOVIEW
 70
     0
  9
$PUCSORGTOP
 10
0.0
 20
0.0
 30
0.0
  9
$PUCSORGBOTTOM
 10
0.0
 20
0.0
 30
0.0
  9
$PUCSORGLEFT
 10
0.0
 20
0.0
 30
0.0
  9
$PUCSORGRIGHT
 10
0.0
 20
0.0
 30
0.0
  9
$PUCSORGFRONT
 10
0.0
 20
0.0
 30
0.0
  9
$PUCSORGBACK
 10
0.0
 20
0.0
 30
0.0
  9
$USERI1
 70
     0
  9
$USERI2
 70
     0
  9
$USERI3
 70
     0
  9
$USERI4
 70
     0
  9
$USERI5
 70
     0
  9
$USERR1
 40
18.1
  9
$USERR2
 40
0.0
  9
$USERR3
 40
0.0
  9
$USERR4
 40
0.0
  9
$USERR5
 40
0.0
  9
$WORLDVIEW
 70
     1
  9
$SHADEDGE
 70
     3
  9
$SHADEDIF
 70
    70
  9
$TILEMODE
 70
     1
  9
$MAXACTVP
 70
    64
  9
$PINSBASE
 10
0.0
 20
0.0
 30
0.0
  9
$PLIMCHECK
 70
     0
  9
$PEXTMIN
 10
1.00000000000000E+20
 20
1.00000000000000E+20
 30
1.00000000000000E+20
  9
$PEXTMAX
 10
-1.00000000000000E+20
 20
-1.00000000000000E+20
 30
-1.00000000000000E+20
  9
$PLIMMIN
 10
0.0
 20
0.0
  9
$PLIMMAX
 10
12.0
 20
9.0
  9
$UNITMODE
 70
     0
  9
$VISRETAIN
 70
     1
  9
$PLINEGEN
 70
     0
  9
$PSLTSCALE
 70
     1
  9
$TREEDEPTH
 70
  3020
  9
$CMLSTYLE
  2
Standard
  9
$CMLJUST
 70
     0
  9
$CMLSCALE
 40
1.0
  9
$PROXYGRAPHICS
 70
     1
  9
$MEASUREMENT
 70
     1
  9
$CELWEIGHT
370
    -1
  9
$ENDCAPS
280
     0
  9
$JOINSTYLE
280
     0
  9
$LWDISPLAY
290
     0
  9
$INSUNITS
 70
     4
  9
$HYPERLINKBASE
  1

  9
$STYLESHEET
  1

  9
$XEDIT
290
     1
  9
$CEPSNTYPE
380
     0
  9
$PSTYLEMODE
290
     1
  9
$FINGERPRINTGUID
  2
{1995D319-845C-4630-80EA-9A0F2DDAACF9}
  9
$VERSIONGUID
  2
{FAEB1C32-E019-11D5-929B-00C0DF256EC4}
  9
$EXTNAMES
290
     1
  9
$PSVPSCALE
 40
0.0
  9
$OLESTARTUP
290
     0
  0
ENDSEC
  0
SECTION
  2
CLASSES
  0
CLASS
  1
ACDBDICTIONARYWDFLT
  2
AcDbDictionaryWithDefault
  3
ObjectDBX Classes
 90
        0
280
     0
281
     0
  0
CLASS
  1
VISUALSTYLE
  2
AcDbVisualStyle
  3
ObjectDBX Classes
 90
     4095
280
     0
281
     0
  0
CLASS
  1
MATERIAL
  2
AcDbMaterial
  3
ObjectDBX Classes
 90
     1153
280
     0
281
     0
  0
CLASS
  1
DICTIONARYVAR
  2
AcDbDictionaryVar
  3
ObjectDBX Classes
 90
        0
280
     0
281
     0
  0
CLASS
  1
ACDBPLACEHOLDER
  2
AcDbPlaceHolder
  3
ObjectDBX Classes
 90
        0
280
     0
281
     0
  0
CLASS
  1
LAYOUT
  2
AcDbLayout
  3
ObjectDBX Classes
 90
        0
280
     0
281
     0
  0
ENDSEC
  0
SECTION
  2
TABLES
  0
TABLE
  2
VPORT
  5
8
330
0
100
AcDbSymbolTable
 70
     1
  0
VPORT
  5
29
330
8
100
AcDbSymbolTableRecord
100
AcDbViewportTableRecord
  2
*Active
 70
     0
 10
0.0
 20
0.0
 11
1.0
 21
1.0
 12
148.5000000000001
 22
105.0000000000001
 13
0.0
 23
0.0
 14
0.5
 24
0.5
 15
0.5
 25
0.5
 16
0.0
 26
0.0
 36
1.0
 17
0.0
 27
0.0
 37
0.0
 40
231.0000000000001
 41
1.60267857142857
 42
50.0
 43
0.0
 44
0.0
 50
0.0
 51
0.0
 71
     0
 72
   100
 73
     1
 74
     3
 75
     0
 76
     0
 77
     0
 78
     0
281
     0
 65
     1
110
0.0
120
0.0
130
0.0
111
1.0
121
0.0
131
0.0
112
0.0
122
1.0
132
0.0
 79
     0
146
0.0
  0
ENDTAB
  0
TABLE
  2
LTYPE
  5
5
330
0
100
AcDbSymbolTable
 70
    10
  0
LTYPE
  5
14
330
5
100
AcDbSymbolTableRecord
100
AcDbLinetypeTableRecord
  2
ByBlock
 70
     0
  3

 72
    65
 73
     0
 40
0.0
  0
LTYPE
  5
15
330
5
100
AcDbSymbolTableRecord
100
AcDbLinetypeTableRecord
  2
ByLayer
 70
     0
  3

 72
    65
 73
     0
 40
0.0
  0
LTYPE
  5
16
330
5
100
AcDbSymbolTableRecord
100
AcDbLinetypeTableRecord
  2
Continuous
 70
     0
  3
Solid line
 72
    65
 73
     0
 40
0.0
  0
LTYPE
  5
3F
330
5
100
AcDbSymbolTableRecord
100
AcDbLinetypeTableRecord
  2
DASHED
 70
     0
  3
Dashed
 72
    65
 73
     2
 40
15.0
 49
7.0
 74
     0
 49
-8.0
 74
     0
  0
LTYPE
  5
40
330
5
100
AcDbSymbolTableRecord
100
AcDbLinetypeTableRecord
  2
DOTTED
 70
     0
  3
Dotted
 72
    65
 73
     2
 40
1.0
 49
0.0
 74
     0
 49
-1.0
 74
     0
  0
LTYPE
  5
41
330
5
100
AcDbSymbolTableRecord
100
AcDbLinetypeTableRecord
  2
DOT_CENTER
 70
     0
  3
Dot_Center
 72
    65
 73
     4
 40
14.0
 49
12.0
 74
     0
 49
-1.0
 74
     0
 49
0.0
 74
     0
 49
-1.0
 74
     0
  0
LTYPE
  5
42
330
5
100
AcDbSymbolTableRecord
100
AcDbLinetypeTableRecord
  2
LONG_DASHED
 70
     0
  3
Long_Dashed
 72
    65
 73
     2
 40
15.0
 49
10.0
 74
     0
 49
-5.0
 74
     0
  0
LTYPE
  5
43
330
5
100
AcDbSymbolTableRecord
100
AcDbLinetypeTableRecord
  2
DASH_CENTER
 70
     0
  3
Dash_Center
 72
    65
 73
     4
 40
14.0
 49
11.0
 74
     0
 49
-1.0
 74
     0
 49
1.0
 74
     0
 49
-1.0
 74
     0
  0
LTYPE
  5
44
330
5
100
AcDbSymbolTableRecord
100
AcDbLinetypeTableRecord
  2
PHANTOM
 70
     0
  3
Phantom
 72
    65
 73
     6
 40
13.0
 49
10.0
 74
     0
 49
-1.0
 74
     0
 49
0.0
 74
     0
 49
-1.0
 74
     0
 49
0.0
 74
     0
 49
-1.0
 74
     0
  0
LTYPE
  5
45
330
5
100
AcDbSymbolTableRecord
100
AcDbLinetypeTableRecord
  2
CENTER_DASH_DASH
 70
     0
  3
Center_Dash_Dash
 72
    65
 73
     6
 40
14.0
 49
9.0
 74
     0
 49
-1.0
 74
     0
 49
1.0
 74
     0
 49
-1.0
 74
     0
 49
1.0
 74
     0
 49
-1.0
 74
     0
  0
LTYPE
  5
46
330
5
100
AcDbSymbolTableRecord
100
AcDbLinetypeTableRecord
  2
CHAIN
 70
     0
  3
CHAIN
 72
    65
 73
     4
 40
4.0
 49
1.0
 74
     0
 49
-1.0
 74
     0
 49
1.0
 74
     0
 49
-1.0
 74
     0
  0
LTYPE
  5
47
330
5
100
AcDbSymbolTableRecord
100
AcDbLinetypeTableRecord
  2
DASHED_SPACE
 70
     0
  3
DASHED_SPACE
 72
    65
 73
     2
 40
2.0
 49
1.0
 74
     0
 49
-1.0
 74
     0
  0
ENDTAB
  0
TABLE
  2
LAYER
  5
2
330
0
100
AcDbSymbolTable
 70
     8
  0
LAYER
  5
10
330
2
100
AcDbSymbolTableRecord
100
AcDbLayerTableRecord
  2
0
 70
     0
 62
     7
  6
Continuous
370
    -3
390
F
  0
LAYER
  5
48
330
2
100
AcDbSymbolTableRecord
100
AcDbLayerTableRecord
  2
1
 70
     0
 62
     7
  6
Continuous
370
    -3
390
F
  0
LAYER
  5
49
330
2
100
AcDbSymbolTableRecord
100
AcDbLayerTableRecord
  2
Bemaßungen_TC_020513_DIN_
 70
     0
 62
     7
  6
Continuous
370
    -3
390
F
  0
LAYER
  5
4A
330
2
100
AcDbSymbolTableRecord
100
AcDbLayerTableRecord
  2
Mittellinie_TC_020513_DIN_
 70
     0
 62
     7
  6
Continuous
370
    -3
390
F
  0
LAYER
  5
4B
330
2
100
AcDbSymbolTableRecord
100
AcDbLayerTableRecord
  2
Mittelpunktmarkierung_TC_020513_DIN_
 70
     0
 62
     7
  6
Continuous
370
    -3
390
F
  0
LAYER
  5
4C
330
2
100
AcDbSymbolTableRecord
100
AcDbLayerTableRecord
  2
Sichtbare_Kanten_TC_020513_DIN_
 70
     0
 62
     7
  6
Continuous
370
    -3
390
F
  0
LAYER
  5
4D
330
2
100
AcDbSymbolTableRecord
100
AcDbLayerTableRecord
  2
Stich_1-Linien_TC_020513_DIN_
 70
     0
 62
     7
  6
Continuous
370
    -3
390
F
  0
LAYER
  5
4E
330
2
100
AcDbSymbolTableRecord
100
AcDbLayerTableRecord
  2
Symbole_TC_020513_DIN_
 70
     0
 62
     7
  6
Continuous
370
    -3
390
F
  0
ENDTAB
  0
TABLE
  2
STYLE
  5
3
330
0
100
AcDbSymbolTable
 70
     4
  0
STYLE
  5
11
330
3
100
AcDbSymbolTableRecord
100
AcDbTextStyleTableRecord
  2
Standard
 70
     0
 40
0.0
 41
1.0
 50
0.0
 71
     0
 42
0.2
  3
txt
  4

  0
STYLE
  5
A3
330
3
100
AcDbSymbolTableRecord
100
AcDbTextStyleTableRecord
  2
CONVERTER_11
 70
     0
 40
0.0
 41
1.2
 50
0.0
 71
     0
 42
0.2
  3
ARIAL.TTF
  4

  0
STYLE
  5
A8
330
3
100
AcDbSymbolTableRecord
100
AcDbTextStyleTableRecord
  2
CONVERTER_12
 70
     0
 40
0.0
 41
1.38
 50
0.0
 71
     0
 42
0.2
  3
ARIAL.TTF
  4

  0
STYLE
  5
52C
330
3
100
AcDbSymbolTableRecord
100
AcDbTextStyleTableRecord
  2
CONVERTER_13
 70
     0
 40
0.0
 41
0.75
 50
0.0
 71
     0
 42
0.2
  3
txt.shx
  4

  0
ENDTAB
  0
TABLE
  2
VIEW
  5
6
330
0
100
AcDbSymbolTable
 70
     0
  0
ENDTAB
  0
TABLE
  2
UCS
  5
7
330
0
100
AcDbSymbolTable
 70
     0
  0
ENDTAB
  0
TABLE
  2
APPID
  5
9
330
0
100
AcDbSymbolTable
 70
     1
  0
APPID
  5
12
330
9
100
AcDbSymbolTableRecord
100
AcDbRegAppTableRecord
  2
ACAD
 70
     0
  0
ENDTAB
  0
TABLE
  2
DIMSTYLE
  5
A
330
0
100
AcDbSymbolTable
 70
    11
100
AcDbDimStyleTable
  0
DIMSTYLE
105
27
330
A
100
AcDbSymbolTableRecord
100
AcDbDimStyleTableRecord
  2
Standard
 70
     0
178
     0
340
11
  0
DIMSTYLE
105
530
102
{ACAD_REACTORS
330
531
102
}
330
A
100
AcDbSymbolTableRecord
100
AcDbDimStyleTableRecord
  2
ME10_DIM_10
 70
     0
 41
2.5
 42
1.0
 44
2.0
 73
     0
 74
     0
 77
     1
 78
    12
140
3.5
147
0.8
172
     1
173
     1
174
     1
175
     1
176
     7
177
     7
271
     2
178
     7
271
     2
340
52C
  0
DIMSTYLE
105
53B
102
{ACAD_REACTORS
330
53C
102
}
330
A
100
AcDbSymbolTableRecord
100
AcDbDimStyleTableRecord
  2
ME10_DIM_11
 70
     0
 41
2.5
 42
1.0
 44
2.0
 73
     0
 74
     0
 77
     1
 78
    12
140
3.5
147
0.8
172
     1
173
     1
174
     1
175
     1
176
     7
177
     7
271
     2
178
     7
271
     2
340
52C
  0
DIMSTYLE
105
546
102
{ACAD_REACTORS
330
547
102
}
330
A
100
AcDbSymbolTableRecord
100
AcDbDimStyleTableRecord
  2
ME10_DIM_12
 70
     0
 41
2.5
 42
1.0
 44
2.0
 73
     0
 74
     0
 77
     1
 78
    12
140
3.5
147
0.8
172
     1
173
     1
174
     1
175
     1
176
     7
177
     7
271
     2
178
     7
271
     2
340
52C
  0
DIMSTYLE
105
551
102
{ACAD_REACTORS
330
552
102
}
330
A
100
AcDbSymbolTableRecord
100
AcDbDimStyleTableRecord
  2
ME10_DIM_13
 70
     0
 41
2.5
 42
1.0
 44
2.0
 73
     0
 74
     0
 77
     1
 78
    12
140
3.5
147
0.8
172
     1
173
     1
174
     1
175
     1
176
     7
177
     7
271
     2
178
     7
271
     2
340
52C
  0
DIMSTYLE
105
55C
102
{ACAD_REACTORS
330
55D
102
}
330
A
100
AcDbSymbolTableRecord
100
AcDbDimStyleTableRecord
  2
ME10_DIM_14
 70
     0
 41
2.5
 42
1.0
 44
2.0
 73
     0
 74
     0
 77
     1
 78
    12
140
3.5
147
0.8
172
     1
173
     1
174
     1
175
     1
176
     7
177
     7
271
     2
178
     7
271
     2
340
52C
  0
DIMSTYLE
105
567
102
{ACAD_REACTORS
330
568
102
}
330
A
100
AcDbSymbolTableRecord
100
AcDbDimStyleTableRecord
  2
ME10_DIM_15
 70
     0
 41
2.5
 42
1.0
 44
2.0
 73
     0
 74
     0
 77
     1
 78
    12
140
3.5
147
0.8
172
     1
173
     1
174
     1
175
     1
176
     7
177
     7
271
     2
178
     7
271
     2
340
52C
  0
DIMSTYLE
105
572
102
{ACAD_REACTORS
330
573
102
}
330
A
100
AcDbSymbolTableRecord
100
AcDbDimStyleTableRecord
  2
ME10_DIM_16
 70
     0
 41
2.5
 42
1.0
 44
2.0
 73
     0
 74
     0
 77
     1
 78
    12
140
3.5
147
0.8
172
     1
173
     1
174
     1
175
     1
176
     7
177
     7
271
     2
178
     7
271
     2
340
52C
  0
DIMSTYLE
105
57D
102
{ACAD_REACTORS
330
57E
102
}
330
A
100
AcDbSymbolTableRecord
100
AcDbDimStyleTableRecord
  2
ME10_DIM_17
 70
     0
 41
2.5
 42
1.0
 44
2.0
 73
     0
 74
     0
 77
     1
 78
    12
140
3.5
147
0.8
172
     1
173
     1
174
     1
175
     1
176
     7
177
     7
271
     0
178
     7
271
     0
340
52C
  0
DIMSTYLE
105
588
102
{ACAD_REACTORS
330
589
102
}
330
A
100
AcDbSymbolTableRecord
100
AcDbDimStyleTableRecord
  2
ME10_DIM_18
 70
     0
 41
2.5
 42
1.0
 44
2.0
 73
     0
 74
     0
 77
     1
 78
    12
140
3.5
147
0.8
172
     1
173
     1
174
     1
175
     1
176
     7
177
     7
271
     2
178
     7
271
     2
340
52C
  0
DIMSTYLE
105
593
102
{ACAD_REACTORS
330
594
102
}
330
A
100
AcDbSymbolTableRecord
100
AcDbDimStyleTableRecord
  2
ME10_DIM_19
 70
     0
 41
2.5
 42
1.0
 44
2.0
 73
     0
 74
     0
 77
     1
 78
    12
140
3.5
147
0.8
172
     1
173
     1
174
     1
175
     1
176
     7
177
     7
271
     2
178
     7
271
     2
340
52C
  0
ENDTAB
  0
TABLE
  2
BLOCK_RECORD
  5
1
330
0
100
AcDbSymbolTable
 70
    13
  0
BLOCK_RECORD
  5
1F
330
1
100
AcDbSymbolTableRecord
100
AcDbBlockTableRecord
  2
*Model_Space
340
22
  0
BLOCK_RECORD
  5
1B
330
1
100
AcDbSymbolTableRecord
100
AcDbBlockTableRecord
  2
*Paper_Space
340
1E
  0
BLOCK_RECORD
  5
23
330
1
100
AcDbSymbolTableRecord
100
AcDbBlockTableRecord
  2
*Paper_Space0
340
26
  0
BLOCK_RECORD
  5
4F
330
1
100
AcDbSymbolTableRecord
100
AcDbBlockTableRecord
  2
_formato_A4
340
0
102
{BLKREFS
331
53
102
}
  0
BLOCK_RECORD
  5
52
330
1
100
AcDbSymbolTableRecord
100
AcDbBlockTableRecord
  2
A4_oriz
340
0
102
{BLKREFS
331
56
102
}
  0
BLOCK_RECORD
  5
526
330
1
100
AcDbSymbolTableRecord
100
AcDbBlockTableRecord
  2
*D3
340
0
  0
BLOCK_RECORD
  5
532
330
1
100
AcDbSymbolTableRecord
100
AcDbBlockTableRecord
  2
*D4
340
0
  0
BLOCK_RECORD
  5
53D
330
1
100
AcDbSymbolTableRecord
100
AcDbBlockTableRecord
  2
*D5
340
0
  0
BLOCK_RECORD
  5
548
330
1
100
AcDbSymbolTableRecord
100
AcDbBlockTableRecord
  2
*D6
340
0
  0
BLOCK_RECORD
  5
553
330
1
100
AcDbSymbolTableRecord
100
AcDbBlockTableRecord
  2
*D7
340
0
  0
BLOCK_RECORD
  5
55E
330
1
100
AcDbSymbolTableRecord
100
AcDbBlockTableRecord
  2
*D8
340
0
  0
BLOCK_RECORD
  5
569
330
1
100
AcDbSymbolTableRecord
100
AcDbBlockTableRecord
  2
*D9
340
0
  0
BLOCK_RECORD
  5
574
330
1
100
AcDbSymbolTableRecord
100
AcDbBlockTableRecord
  2
*D10
340
0
  0
BLOCK_RECORD
  5
57F
330
1
100
AcDbSymbolTableRecord
100
AcDbBlockTableRecord
  2
*D11
340
0
  0
BLOCK_RECORD
  5
58A
330
1
100
AcDbSymbolTableRecord
100
AcDbBlockTableRecord
  2
*D12
340
0
  0
ENDTAB
  0
ENDSEC
  0
SECTION
  2
BLOCKS
  0
BLOCK
  5
20
330
1F
100
AcDbEntity
  8
0
100
AcDbBlockBegin
  2
*Model_Space
 70
     0
 10
0.0
 20
0.0
 30
0.0
  3
*Model_Space
  1

  0
ENDBLK
  5
21
330
1F
100
AcDbEntity
  8
0
100
AcDbBlockEnd
  0
BLOCK
  5
1C
330
1B
100
AcDbEntity
 67
     1
  8
0
100
AcDbBlockBegin
  2
*Paper_Space
 70
     0
 10
0.0
 20
0.0
 30
0.0
  3
*Paper_Space
  1

  0
ENDBLK
  5
1D
330
1B
100
AcDbEntity
 67
     1
  8
0
100
AcDbBlockEnd
  0
BLOCK
  5
24
330
23
100
AcDbEntity
  8
0
100
AcDbBlockBegin
  2
*Paper_Space0
 70
     0
 10
0.0
 20
0.0
 30
0.0
  3
*Paper_Space0
  1

  0
ENDBLK
  5
25
330
23
100
AcDbEntity
  8
0
100
AcDbBlockEnd
  0
BLOCK
  5
50
330
4F
100
AcDbEntity
  8
0
100
AcDbBlockBegin
  2
_formato_A4
 70
     0
 10
297.0000000000001
 20
0.0
 30
0.0
  3
_formato_A4
  1

  0
LINE
  5
57
330
4F
100
AcDbEntity
  8
1
  6
Continuous
 62
     7
100
AcDbLine
 10
108.0000000000001
 20
4.99999999999988
 30
0.0
 11
108.0000000000001
 21
39.99999999999999
 31
0.0
  0
LINE
  5
58
330
4F
100
AcDbEntity
  8
1
  6
Continuous
 62
     7
100
AcDbLine
 10
108.0000000000001
 20
20.0
 30
0.0
 11
292.0000000000001
 21
20.0
 31
0.0
  0
LINE
  5
59
330
4F
100
AcDbEntity
  8
1
  6
Continuous
 62
     7
100
AcDbLine
 10
4.99999999999989
 20
189.0
 30
0.0
 11
4.99999999999989
 21
5.0
 31
0.0
  0
LINE
  5
5A
330
4F
100
AcDbEntity
  8
1
  6
Continuous
 62
     7
100
AcDbLine
 10
133.0000000000002
 20
34.99999999999999
 30
0.0
 11
133.0000000000002
 21
39.99999999999999
 31
0.0
  0
LINE
  5
5B
330
4F
100
AcDbEntity
  8
1
  6
Continuous
 62
     7
100
AcDbLine
 10
115.0000000000001
 20
34.99999999999999
 30
0.0
 11
115.0000000000001
 21
39.99999999999999
 31
0.0
  0
LINE
  5
5C
330
4F
100
AcDbEntity
  8
1
  6
Continuous
 62
     7
100
AcDbLine
 10
108.0000000000001
 20
39.99999999999999
 30
0.0
 11
292.0000000000001
 21
39.99999999999999
 31
0.0
  0
LINE
  5
5D
330
4F
100
AcDbEntity
  8
1
  6
Continuous
 62
     7
100
AcDbLine
 10
133.0000000000002
 20
29.99999999999999
 30
0.0
 11
133.0000000000002
 21
34.99999999999999
 31
0.0
  0
LINE
  5
5E
330
4F
100
AcDbEntity
  8
1
  6
Continuous
 62
     7
100
AcDbLine
 10
115.0000000000001
 20
29.99999999999999
 30
0.0
 11
115.0000000000001
 21
34.99999999999999
 31
0.0
  0
LINE
  5
5F
330
4F
100
AcDbEntity
  8
1
  6
Continuous
 62
     7
100
AcDbLine
 10
108.0000000000001
 20
34.99999999999999
 30
0.0
 11
292.0000000000001
 21
34.99999999999999
 31
0.0
  0
LINE
  5
60
330
4F
100
AcDbEntity
  8
1
  6
Continuous
 62
     7
100
AcDbLine
 10
133.0000000000002
 20
24.99999999999999
 30
0.0
 11
133.0000000000002
 21
29.99999999999999
 31
0.0
  0
LINE
  5
61
330
4F
100
AcDbEntity
  8
1
  6
Continuous
 62
     7
100
AcDbLine
 10
115.0000000000001
 20
24.99999999999999
 30
0.0
 11
115.0000000000001
 21
29.99999999999999
 31
0.0
  0
LINE
  5
62
330
4F
100
AcDbEntity
  8
1
  6
Continuous
 62
     7
100
AcDbLine
 10
108.0000000000001
 20
29.99999999999999
 30
0.0
 11
292.0000000000001
 21
29.99999999999999
 31
0.0
  0
LINE
  5
63
330
4F
100
AcDbEntity
  8
1
  6
Continuous
 62
     7
100
AcDbLine
 10
133.0000000000002
 20
20.0
 30
0.0
 11
133.0000000000002
 21
24.99999999999999
 31
0.0
  0
LINE
  5
64
330
4F
100
AcDbEntity
  8
1
  6
Continuous
 62
     7
100
AcDbLine
 10
115.0000000000001
 20
20.0
 30
0.0
 11
115.0000000000001
 21
24.99999999999999
 31
0.0
  0
LINE
  5
65
330
4F
100
AcDbEntity
  8
1
  6
Continuous
 62
     7
100
AcDbLine
 10
108.0000000000001
 20
24.99999999999999
 30
0.0
 11
292.0000000000001
 21
24.99999999999999
 31
0.0
  0
LINE
  5
66
102
{ACAD_REACTORS
330
AE
102
}
330
4F
100
AcDbEntity
  8
1
  6
Continuous
 62
     7
100
AcDbLine
 10
282.8428748399059
 20
10.55800208038033
 30
0.0
 11
281.5095415065727
 21
9.78877131114973
 31
0.0
  0
LINE
  5
67
102
{ACAD_REACTORS
330
AE
102
}
330
4F
100
AcDbEntity
  8
1
  6
Continuous
 62
     7
100
AcDbLine
 10
281.6763006887428
 20
10.65463653264794
 30
0.0
 11
282.5097265375796
 21
11.13545913774624
 31
0.0
  0
LINE
  5
68
102
{ACAD_REACTORS
330
AE
102
}
330
4F
100
AcDbEntity
  8
1
  6
Continuous
 62
     7
100
AcDbLine
 10
281.6763006887428
 20
12.16666666666663
 30
0.0
 11
281.6763006887428
 21
10.65463653264794
 31
0.0
  0
LINE
  5
69
102
{ACAD_REACTORS
330
AE
102
}
330
4F
100
AcDbEntity
  8
1
  6
Continuous
 62
     7
100
AcDbLine
 10
282.6763006887428
 20
12.16666666666663
 30
0.0
 11
281.6763006887428
 21
12.16666666666663
 31
0.0
  0
LINE
  5
6A
102
{ACAD_REACTORS
330
AE
102
}
330
4F
100
AcDbEntity
  8
1
  6
Continuous
 62
     7
100
AcDbLine
 10
281.6763006887428
 20
12.83333333333326
 30
0.0
 11
282.6763006887428
 21
12.83333333333326
 31
0.0
  0
LINE
  5
6B
102
{ACAD_REACTORS
330
AE
102
}
330
4F
100
AcDbEntity
  8
1
  6
Continuous
 62
     7
100
AcDbLine
 10
281.6763006887428
 20
14.34536346735195
 30
0.0
 11
281.6763006887428
 21
12.83333333333326
 31
0.0
  0
LINE
  5
6C
102
{ACAD_REACTORS
330
AE
102
}
330
4F
100
AcDbEntity
  8
1
  6
Continuous
 62
     7
100
AcDbLine
 10
282.5097265375796
 20
13.86454086225376
 30
0.0
 11
281.6763006887428
 21
14.34536346735195
 31
0.0
  0
LINE
  5
6D
102
{ACAD_REACTORS
330
AE
102
}
330
4F
100
AcDbEntity
  8
1
  6
Continuous
 62
     7
100
AcDbLine
 10
281.5095415065727
 20
15.21122868885027
 30
0.0
 11
282.8428748399059
 21
14.44199791961944
 31
0.0
  0
LINE
  5
6E
102
{ACAD_REACTORS
330
AF
102
}
330
4F
100
AcDbEntity
  8
1
  6
Continuous
 62
     7
100
AcDbLine
 10
274.3429673554094
 20
10.84673060906323
 30
0.0
 11
274.3429673554094
 21
14.15326939093666
 31
0.0
  0
LINE
  5
6F
102
{ACAD_REACTORS
330
AF
102
}
330
4F
100
AcDbEntity
  8
1
  6
Continuous
 62
     7
100
AcDbLine
 10
275.0096340220761
 20
11.0392519172633
 30
0.0
 11
275.0096340220761
 21
10.84673060906323
 31
0.0
  0
LINE
  5
70
102
{ACAD_REACTORS
330
AF
102
}
330
4F
100
AcDbEntity
  8
1
  6
Continuous
 62
     7
100
AcDbLine
 10
275.0096340220761
 20
14.15326939093666
 30
0.0
 11
275.0096340220761
 21
11.0392519172633
 31
0.0
  0
LINE
  5
71
102
{ACAD_REACTORS
330
B0
102
}
330
4F
100
AcDbEntity
  8
1
  6
Continuous
 62
     7
100
AcDbLine
 10
278.1763932042462
 20
8.4426174649958
 30
0.0
 11
276.0098190530831
 21
9.6925640906669
 31
0.0
  0
LINE
  5
72
102
{ACAD_REACTORS
330
B0
102
}
330
4F
100
AcDbEntity
  8
1
  6
Continuous
 62
     7
100
AcDbLine
 10
276.3429673554094
 20
10.2700211480327
 30
0.0
 11
278.5095415065727
 21
9.0200745223616
 31
0.0
  0
LINE
  5
73
102
{ACAD_REACTORS
330
B0
102
}
330
4F
100
AcDbEntity
  8
1
  6
Continuous
 62
     7
100
AcDbLine
 10
276.3429673554094
 20
14.92250016016737
 30
0.0
 11
276.3429673554094
 21
10.2700211480327
 31
0.0
  0
LINE
  5
74
102
{ACAD_REACTORS
330
B0
102
}
330
4F
100
AcDbEntity
  8
1
  6
Continuous
 62
     7
100
AcDbLine
 10
275.6763006887428
 20
10.27002114803258
 30
0.0
 11
275.6763006887428
 21
14.92250016016737
 31
0.0
  0
LINE
  5
75
102
{ACAD_REACTORS
330
B1
102
}
330
4F
100
AcDbEntity
  8
1
  6
Continuous
 62
     7
100
AcDbLine
 10
279.8485336717861
 20
15.86370041827229
 30
0.0
 11
278.6763006887428
 21
13.83333333333326
 31
0.0
  0
LINE
  5
76
102
{ACAD_REACTORS
330
B1
102
}
330
4F
100
AcDbEntity
  8
1
  6
Continuous
 62
     7
100
AcDbLine
 10
280.3429673554094
 20
9.30826907060179
 30
0.0
 11
280.3429673554094
 21
15.73121731203457
 31
0.0
  0
LINE
  5
77
102
{ACAD_REACTORS
330
B1
102
}
330
4F
100
AcDbEntity
  8
1
  6
Continuous
 62
     7
100
AcDbLine
 10
279.6763006887428
 20
12.5
 30
0.0
 11
279.6763006887428
 21
9.30826907060179
 31
0.0
  0
LINE
  5
78
102
{ACAD_REACTORS
330
B1
102
}
330
4F
100
AcDbEntity
  8
1
  6
Continuous
 62
     7
100
AcDbLine
 10
277.6763006887428
 20
10.84758507263291
 30
0.0
 11
277.6763006887428
 21
12.5
 31
0.0
  0
LINE
  5
79
102
{ACAD_REACTORS
330
B1
102
}
330
4F
100
AcDbEntity
  8
1
  6
Continuous
 62
     7
100
AcDbLine
 10
277.0096340220761
 20
12.5
 30
0.0
 11
277.0096340220761
 21
10.84758507263291
 31
0.0
  0
LINE
  5
7A
102
{ACAD_REACTORS
330
B1
102
}
330
4F
100
AcDbEntity
  8
1
  6
Continuous
 62
     7
100
AcDbLine
 10
277.5040677056995
 20
15.86370041827229
 30
0.0
 11
278.6763006887428
 21
13.83333333333326
 31
0.0
  0
LINE
  5
7B
102
{ACAD_REACTORS
330
B1
102
}
330
4F
100
AcDbEntity
  8
1
  6
Continuous
 62
     7
100
AcDbLine
 10
277.0096340220761
 20
12.5
 30
0.0
 11
277.0096340220761
 21
15.73121731203457
 31
0.0
  0
LINE
  5
7C
330
4F
100
AcDbEntity
  8
1
  6
Continuous
 62
     7
100
AcDbLine
 10
278.6763006887428
 20
7.5
 30
0.0
 11
270.2598654136012
 21
12.35563573565855
 31
0.0
  0
LINE
  5
7D
330
4F
100
AcDbEntity
  8
1
  6
Continuous
 62
     7
100
AcDbLine
 10
287.0927359638843
 20
12.35563573565855
 30
0.0
 11
278.6763006887428
 21
7.5
 31
0.0
  0
LINE
  5
7E
330
4F
100
AcDbEntity
  8
1
  6
Continuous
 62
     7
100
AcDbLine
 10
278.6763006887428
 20
17.5
 30
0.0
 11
287.0927359638843
 21
12.64436426434133
 31
0.0
  0
LINE
  5
7F
330
4F
100
AcDbEntity
  8
1
  6
Continuous
 62
     7
100
AcDbLine
 10
270.2598654136012
 20
12.64436426434133
 30
0.0
 11
278.6763006887428
 21
17.5
 31
0.0
  0
LINE
  5
80
102
{ACAD_REACTORS
330
B1
102
}
330
4F
100
AcDbEntity
  8
1
  6
Continuous
 62
     7
100
AcDbLine
 10
277.6763006887428
 20
14.23205080756884
 30
0.0
 11
277.6763006887428
 21
12.5
 31
0.0
  0
LINE
  5
81
102
{ACAD_REACTORS
330
B1
102
}
330
4F
100
AcDbEntity
  8
1
  6
Continuous
 62
     7
100
AcDbLine
 10
278.5319631214453
 20
12.75
 30
0.0
 11
277.6763006887428
 21
14.23205080756884
 31
0.0
  0
LINE
  5
82
102
{ACAD_REACTORS
330
B1
102
}
330
4F
100
AcDbEntity
  8
1
  6
Continuous
 62
     7
100
AcDbLine
 10
279.6763006887428
 20
14.23205080756884
 30
0.0
 11
278.8206382560402
 21
12.75
 31
0.0
  0
LINE
  5
83
102
{ACAD_REACTORS
330
B1
102
}
330
4F
100
AcDbEntity
  8
1
  6
Continuous
 62
     7
100
AcDbLine
 10
279.6763006887428
 20
12.5
 30
0.0
 11
279.6763006887428
 21
14.23205080756884
 31
0.0
  0
LINE
  5
84
102
{ACAD_REACTORS
330
AE
102
}
330
4F
100
AcDbEntity
  8
1
  6
Continuous
 62
     7
100
AcDbLine
 10
281.0096340220762
 20
10.07749983983263
 30
0.0
 11
281.0096340220762
 21
14.92250016016737
 31
0.0
  0
LINE
  5
85
330
4F
100
AcDbEntity
  8
1
  6
Continuous
 62
     7
100
AcDbLine
 10
292.0000000000001
 20
189.0
 30
0.0
 11
4.99999999999989
 21
189.0
 31
0.0
  0
LINE
  5
86
330
4F
100
AcDbEntity
  8
1
  6
Continuous
 62
     7
100
AcDbLine
 10
292.0000000000001
 20
5.0
 30
0.0
 11
292.0000000000001
 21
189.0
 31
0.0
  0
LINE
  5
87
330
4F
100
AcDbEntity
  8
1
  6
Continuous
 62
     7
100
AcDbLine
 10
4.99999999999989
 20
5.0
 30
0.0
 11
292.0000000000001
 21
5.0
 31
0.0
  0
LINE
  5
88
330
4F
100
AcDbEntity
  8
1
  6
Continuous
 62
     7
100
AcDbLine
 10
297.0000000000001
 20
0.0
 30
0.0
 11
297.0000000000001
 21
210.0000000000001
 31
0.0
  0
LINE
  5
89
330
4F
100
AcDbEntity
  8
1
  6
Continuous
 62
     7
100
AcDbLine
 10
297.0000000000001
 20
210.0000000000001
 30
0.0
 11
0.0
 21
210.0000000000001
 31
0.0
  0
LINE
  5
8A
330
4F
100
AcDbEntity
  8
1
  6
Continuous
 62
     7
100
AcDbLine
 10
0.0
 20
210.0000000000001
 30
0.0
 11
0.0
 21
0.0
 31
0.0
  0
LINE
  5
8B
330
4F
100
AcDbEntity
  8
1
  6
Continuous
 62
     7
100
AcDbLine
 10
0.0
 20
0.0
 30
0.0
 11
297.0000000000001
 21
0.0
 31
0.0
  0
LINE
  5
8C
330
4F
100
AcDbEntity
  8
1
  6
Continuous
 62
     7
100
AcDbLine
 10
148.4999999999997
 20
210.0000000000001
 30
0.0
 11
148.4999999999997
 21
195.0000000000001
 31
0.0
  0
LINE
  5
8D
330
4F
100
AcDbEntity
  8
1
  6
Continuous
 62
     7
100
AcDbLine
 10
138.0000000000001
 20
20.0
 30
0.0
 11
138.0000000000001
 21
5.0
 31
0.0
  0
LINE
  5
8E
330
4F
100
AcDbEntity
  8
1
  6
Continuous
 62
     7
100
AcDbLine
 10
265.3526013774855
 20
20.0
 30
0.0
 11
265.3526013774855
 21
5.0
 31
0.0
  0
LINE
  5
8F
330
4F
100
AcDbEntity
  8
1
  6
Continuous
 62
     7
100
AcDbLine
 10
248.0000000000001
 20
20.0
 30
0.0
 11
248.0000000000001
 21
5.0
 31
0.0
  0
LINE
  5
90
330
4F
100
AcDbEntity
  8
1
  6
Continuous
 62
     7
100
AcDbLine
 10
108.0000000000001
 20
14.99999999999989
 30
0.0
 11
138.0000000000001
 21
14.99999999999989
 31
0.0
  0
LINE
  5
91
330
4F
100
AcDbEntity
  8
1
  6
Continuous
 62
     7
100
AcDbLine
 10
108.0000000000001
 20
9.99999999999986
 30
0.0
 11
138.0000000000001
 21
9.99999999999986
 31
0.0
  0
ARC
  5
92
102
{ACAD_REACTORS
330
AE
102
}
330
4F
100
AcDbEntity
  8
1
  6
Continuous
 62
     7
100
AcDbCircle
 10
282.6763006887428
 20
10.84673060906323
 30
0.0
 40
0.3333333333333172
100
AcDbArc
 50
299.9816393688334
 51
119.9816393688407
  0
ARC
  5
93
102
{ACAD_REACTORS
330
AE
102
}
330
4F
100
AcDbEntity
  8
1
  6
Continuous
 62
     7
100
AcDbCircle
 10
282.6763006887428
 20
12.5
 30
0.0
 40
0.3333333333333695
100
AcDbArc
 50
270.0
 51
90.0
  0
ARC
  5
94
102
{ACAD_REACTORS
330
AE
102
}
330
4F
100
AcDbEntity
  8
1
  6
Continuous
 62
     7
100
AcDbCircle
 10
282.6763006887428
 20
14.15326939093666
 30
0.0
 40
0.3333333333333755
100
AcDbArc
 50
240.0183606311498
 51
60.01836063115638
  0
ARC
  5
95
102
{ACAD_REACTORS
330
AF
102
}
330
4F
100
AcDbEntity
  8
1
  6
Continuous
 62
     7
100
AcDbCircle
 10
274.6763006887428
 20
10.84673060906323
 30
0.0
 40
0.3333333333333712
100
AcDbArc
 50
180.0
 51
0.0
  0
ARC
  5
96
102
{ACAD_REACTORS
330
AF
102
}
330
4F
100
AcDbEntity
  8
1
  6
Continuous
 62
     7
100
AcDbCircle
 10
274.6763006887428
 20
14.15326939093666
 30
0.0
 40
0.3333333333333144
100
AcDbArc
 50
0.0
 51
180.0
  0
ARC
  5
97
102
{ACAD_REACTORS
330
B0
102
}
330
4F
100
AcDbEntity
  8
1
  6
Continuous
 62
     7
100
AcDbCircle
 10
278.3429673554094
 20
8.7313459936787
 30
0.0
 40
0.333333333333374
100
AcDbArc
 50
240.0183606311496
 51
60.01836063114121
  0
ARC
  5
98
102
{ACAD_REACTORS
330
B0
102
}
330
4F
100
AcDbEntity
  8
1
  6
Continuous
 62
     7
100
AcDbCircle
 10
276.0096340220761
 20
14.92250016016737
 30
0.0
 40
0.3333333333333144
100
AcDbArc
 50
0.0
 51
180.0
  0
ARC
  5
99
102
{ACAD_REACTORS
330
B1
102
}
330
4F
100
AcDbEntity
  8
1
  6
Continuous
 62
     7
100
AcDbCircle
 10
280.0780011429341
 20
15.73121731203457
 30
0.0
 40
0.2649662124753149
100
AcDbArc
 50
0.0
 51
149.9999999999746
  0
ARC
  5
9A
102
{ACAD_REACTORS
330
B1
102
}
330
4F
100
AcDbEntity
  8
1
  6
Continuous
 62
     7
100
AcDbCircle
 10
280.0096340220762
 20
9.30826907060179
 30
0.0
 40
0.3333333333334281
100
AcDbArc
 50
180.0
 51
0.0
  0
ARC
  5
9B
102
{ACAD_REACTORS
330
B1
102
}
330
4F
100
AcDbEntity
  8
1
  6
Continuous
 62
     7
100
AcDbCircle
 10
277.3429673554094
 20
10.84758507263291
 30
0.0
 40
0.3333333333333144
100
AcDbArc
 50
180.0
 51
0.0
  0
ARC
  5
9C
102
{ACAD_REACTORS
330
B1
102
}
330
4F
100
AcDbEntity
  8
1
  6
Continuous
 62
     7
100
AcDbCircle
 10
277.2746002345514
 20
15.73121731203457
 30
0.0
 40
0.2649662124753346
100
AcDbArc
 50
30.00000000001307
 51
180.0
  0
ARC
  5
9D
102
{ACAD_REACTORS
330
AE
102
}
330
4F
100
AcDbEntity
  8
1
  6
Continuous
 62
     7
100
AcDbCircle
 10
281.3429673554094
 20
10.07749983983263
 30
0.0
 40
0.3333333333332007
100
AcDbArc
 50
180.0
 51
299.9816393688587
  0
ARC
  5
9E
102
{ACAD_REACTORS
330
AE
102
}
330
4F
100
AcDbEntity
  8
1
  6
Continuous
 62
     7
100
AcDbCircle
 10
281.3429673554094
 20
14.92250016016737
 30
0.0
 40
0.3333333333334024
100
AcDbArc
 50
60.01836063114121
 51
180.0
  0
ARC
  5
9F
330
4F
100
AcDbEntity
  8
1
  6
Continuous
 62
     7
100
AcDbCircle
 10
287.0094488883027
 20
12.5
 30
0.0
 40
0.166666666666687
100
AcDbArc
 50
299.9816393688503
 51
60.01836063112923
  0
ARC
  5
A0
330
4F
100
AcDbEntity
  8
1
  6
Continuous
 62
     7
100
AcDbCircle
 10
270.3431524891829
 20
12.5
 30
0.0
 40
0.1666666666666407
100
AcDbArc
 50
119.9816393689046
 51
240.0183606311158
  0
ARC
  5
A1
102
{ACAD_REACTORS
330
B0
102
}
330
4F
100
AcDbEntity
  8
1
  6
Continuous
 62
     7
100
AcDbCircle
 10
276.3429673554094
 20
10.2700211480327
 30
0.0
 40
0.6666666666666288
100
AcDbArc
 50
180.0000000000104
 51
240.0183606311582
  0
ARC
  5
A2
102
{ACAD_REACTORS
330
B1
102
}
330
4F
100
AcDbEntity
  8
1
  6
Continuous
 62
     7
100
AcDbCircle
 10
278.6763006887428
 20
12.83333333333326
 30
0.0
 40
0.166666666666709
100
AcDbArc
 50
209.9999999999622
 51
330.0000000000182
  0
MTEXT
  5
A4
330
4F
100
AcDbEntity
  8
1
 62
     7
100
AcDbMText
 10
256.6763006887428
 20
10.06063942075605
 30
0.0
 40
4.5
 41
0.0
 71
     5
 72
     1
  1
1:1
  7
CONVERTER_11
 73
     1
 44
1.32052821128451
  0
MTEXT
  5
A5
330
4F
100
AcDbEntity
  8
1
 62
     7
100
AcDbMText
 10
256.6763006887428
 20
16.26063942075598
 30
0.0
 40
3.0
 41
0.0
 71
     5
 72
     1
  1
Scale
  7
CONVERTER_11
 73
     1
 44
1.32052821128451
  0
MTEXT
  5
A6
330
4F
100
AcDbEntity
  8
1
 62
     7
100
AcDbMText
 10
144.2763006887428
 20
12.5
 30
0.0
 40
4.5
 41
0.0
 71
     4
 72
     1
  1
JCVP 06 L\PSurface mounting housing, 1 lever, PG16 - JEI
  7
CONVERTER_11
 73
     1
 44
0.90036014405762
  0
MTEXT
  5
A7
330
4F
100
AcDbEntity
  8
1
 62
     7
100
AcDbMText
 10
151.4999999999997
 20
194.0000000000001
 30
0.0
 40
4.0
 41
0.0
 71
     5
 72
     1
  1
Diritti riservati      All rights reserved
  7
CONVERTER_11
 73
     1
 44
1.32052821128451
  0
MTEXT
  5
A9
330
4F
100
AcDbEntity
  8
1
 62
     7
100
AcDbMText
 10
123.0000000000001
 20
17.49999999999994
 30
0.0
 40
2.5
 41
0.0
 71
     5
 72
     1
  1
dimensions in mm
  7
CONVERTER_12
 73
     1
 44
0.60024009603842
  0
MTEXT
  5
AA
330
4F
100
AcDbEntity
  8
1
 62
     7
100
AcDbMText
 10
109.0000000000001
 20
12.49999999999987
 30
0.0
 40
3.0
 41
0.0
 71
     4
 72
     1
  1
Date
  7
CONVERTER_11
 73
     1
 44
1.32052821128451
  0
MTEXT
  5
AB
330
4F
100
AcDbEntity
  8
1
 62
     7
100
AcDbMText
 10
119.6000000000001
 20
12.49999999999987
 30
0.0
 40
3.0
 41
0.0
 71
     4
 72
     1
  1
19/06/14
  7
CONVERTER_11
 73
     1
 44
1.32052821128451
  0
MTEXT
  5
AC
330
4F
100
AcDbEntity
  8
1
 62
     7
100
AcDbMText
 10
109.0000000000001
 20
7.49999999999987
 30
0.0
 40
3.0
 41
0.0
 71
     4
 72
     1
  1
Sign.
  7
CONVERTER_11
 73
     1
 44
1.32052821128451
  0
MTEXT
  5
AD
330
4F
100
AcDbEntity
  8
1
 62
     7
100
AcDbMText
 10
119.6000000000001
 20
7.49999999999987
 30
0.0
 40
3.0
 41
0.0
 71
     4
 72
     1
  1
Radice
  7
CONVERTER_11
 73
     1
 44
1.32052821128451
  0
HATCH
  5
AE
330
4F
100
AcDbEntity
  8
1
  6
Continuous
 62
     7
100
AcDbHatch
 10
0.0
 20
0.0
 30
0.0
210
0.0
220
0.0
230
1.0
  2
SOLID
 70
     1
 71
     1
 91
        1
 92
        1
 93
       14
 72
     2
 10
281.3429673554094
 20
14.92250016016737
 40
0.3333333333334024
 50
60.01836063114121
 51
180.0
 73
     1
 72
     1
 10
281.0096340220762
 20
14.92250016016737
 11
281.0096340220762
 21
10.07749983983263
 72
     2
 10
281.3429673554094
 20
10.07749983983263
 40
0.3333333333332007
 50
180.0
 51
299.9816393688587
 73
     1
 72
     1
 10
281.5095415065727
 20
9.788771311149729
 11
282.8428748399059
 21
10.55800208038033
 72
     2
 10
282.6763006887428
 20
10.84673060906323
 40
0.3333333333333172
 50
299.9816393688334
 51
479.9816393688407
 73
     1
 72
     1
 10
282.5097265375796
 20
11.13545913774624
 11
281.6763006887428
 21
10.65463653264794
 72
     1
 10
281.6763006887428
 20
10.65463653264794
 11
281.6763006887428
 21
12.16666666666663
 72
     1
 10
281.6763006887428
 20
12.16666666666663
 11
282.6763006887428
 21
12.16666666666663
 72
     2
 10
282.6763006887428
 20
12.5
 40
0.3333333333333695
 50
270.0
 51
450.0
 73
     1
 72
     1
 10
282.6763006887428
 20
12.83333333333326
 11
281.6763006887428
 21
12.83333333333326
 72
     1
 10
281.6763006887428
 20
12.83333333333326
 11
281.6763006887428
 21
14.34536346735195
 72
     1
 10
281.6763006887428
 20
14.34536346735195
 11
282.5097265375796
 21
13.86454086225376
 72
     2
 10
282.6763006887428
 20
14.15326939093666
 40
0.3333333333333755
 50
240.0183606311498
 51
420.0183606311564
 73
     1
 72
     1
 10
282.8428748399059
 20
14.44199791961944
 11
281.5095415065727
 21
15.21122868885027
 97
       14
330
94
330
6C
330
6B
330
6A
330
93
330
69
330
68
330
67
330
92
330
66
330
9D
330
84
330
9E
330
6D
 75
     0
 76
     1
 98
        1
 10
0.0
 20
0.0
  0
HATCH
  5
AF
330
4F
100
AcDbEntity
  8
1
  6
Continuous
 62
     7
100
AcDbHatch
 10
0.0
 20
0.0
 30
0.0
210
0.0
220
0.0
230
1.0
  2
SOLID
 70
     1
 71
     1
 91
        1
 92
        1
 93
        5
 72
     2
 10
274.6763006887428
 20
14.15326939093666
 40
0.3333333333333144
 50
0.0
 51
180.0
 73
     1
 72
     1
 10
274.3429673554094
 20
14.15326939093666
 11
274.3429673554094
 21
10.84673060906323
 72
     2
 10
274.6763006887428
 20
10.84673060906323
 40
0.3333333333333712
 50
180.0
 51
360.0
 73
     1
 72
     1
 10
275.0096340220761
 20
10.84673060906323
 11
275.0096340220761
 21
11.0392519172633
 72
     1
 10
275.0096340220761
 20
11.0392519172633
 11
275.0096340220761
 21
14.15326939093666
 97
        5
330
96
330
6E
330
95
330
6F
330
70
 75
     0
 76
     1
 98
        1
 10
0.0
 20
0.0
  0
HATCH
  5
B0
330
4F
100
AcDbEntity
  8
1
  6
Continuous
 62
     7
100
AcDbHatch
 10
0.0
 20
0.0
 30
0.0
210
0.0
220
0.0
230
1.0
  2
SOLID
 70
     1
 71
     1
 91
        1
 92
        1
 93
        7
 72
     2
 10
276.0096340220761
 20
14.92250016016737
 40
0.3333333333333144
 50
0.0
 51
180.0
 73
     1
 72
     1
 10
275.6763006887428
 20
14.92250016016737
 11
275.6763006887428
 21
10.27002114803258
 72
     2
 10
276.3429673554094
 20
10.2700211480327
 40
0.6666666666666288
 50
180.0000000000104
 51
240.0183606311582
 73
     1
 72
     1
 10
276.0098190530831
 20
9.6925640906669
 11
278.1763932042462
 21
8.4426174649958
 72
     2
 10
278.3429673554094
 20
8.7313459936787
 40
0.333333333333374
 50
240.0183606311496
 51
420.0183606311411
 73
     1
 72
     1
 10
278.5095415065727
 20
9.020074522361599
 11
276.3429673554094
 21
10.2700211480327
 72
     1
 10
276.3429673554094
 20
10.2700211480327
 11
276.3429673554094
 21
14.92250016016737
 97
        7
330
98
330
74
330
A1
330
71
330
97
330
72
330
73
 75
     0
 76
     1
 98
        1
 10
0.0
 20
0.0
  0
HATCH
  5
B1
330
4F
100
AcDbEntity
  8
1
  6
Continuous
 62
     7
100
AcDbHatch
 10
0.0
 20
0.0
 30
0.0
210
0.0
220
0.0
230
1.0
  2
SOLID
 70
     1
 71
     1
 91
        1
 92
        1
 93
       16
 72
     2
 10
280.0780011429341
 20
15.73121731203457
 40
0.2649662124753149
 50
210.0000000000254
 51
360.0
 73
     0
 72
     1
 10
280.3429673554094
 20
15.73121731203457
 11
280.3429673554094
 21
9.30826907060179
 72
     2
 10
280.0096340220762
 20
9.30826907060179
 40
0.3333333333334281
 50
0.0
 51
180.0
 73
     0
 72
     1
 10
279.6763006887428
 20
9.30826907060179
 11
279.6763006887428
 21
12.5
 72
     1
 10
279.6763006887428
 20
12.5
 11
279.6763006887428
 21
14.23205080756884
 72
     1
 10
279.6763006887428
 20
14.23205080756884
 11
278.8206382560402
 21
12.75
 72
     2
 10
278.6763006887428
 20
12.83333333333326
 40
0.166666666666709
 50
29.99999999998175
 51
150.0000000000378
 73
     0
 72
     1
 10
278.5319631214453
 20
12.75
 11
277.6763006887428
 21
14.23205080756884
 72
     1
 10
277.6763006887428
 20
14.23205080756884
 11
277.6763006887428
 21
12.5
 72
     1
 10
277.6763006887428
 20
12.5
 11
277.6763006887428
 21
10.84758507263291
 72
     2
 10
277.3429673554094
 20
10.84758507263291
 40
0.3333333333333144
 50
0.0
 51
180.0
 73
     0
 72
     1
 10
277.0096340220761
 20
10.84758507263291
 11
277.0096340220761
 21
12.5
 72
     1
 10
277.0096340220761
 20
12.5
 11
277.0096340220761
 21
15.73121731203457
 72
     2
 10
277.2746002345514
 20
15.73121731203457
 40
0.2649662124753346
 50
180.0
 51
329.9999999999869
 73
     0
 72
     1
 10
277.5040677056995
 20
15.86370041827229
 11
278.6763006887428
 21
13.83333333333326
 72
     1
 10
278.6763006887428
 20
13.83333333333326
 11
279.8485336717861
 21
15.86370041827229
 97
       16
330
7A
330
9C
330
7B
330
79
330
9B
330
78
330
80
330
81
330
A2
330
82
330
83
330
77
330
9A
330
76
330
99
330
75
 75
     0
 76
     1
 98
        1
 10
0.0
 20
0.0
  0
ENDBLK
  5
51
330
4F
100
AcDbEntity
  8
0
100
AcDbBlockEnd
  0
BLOCK
  5
54
330
52
100
AcDbEntity
  8
0
100
AcDbBlockBegin
  2
A4_oriz
 70
     0
 10
297.0000000000001
 20
0.0
 30
0.0
  3
A4_oriz
  1

  0
INSERT
  5
53
330
52
100
AcDbEntity
  8
1
100
AcDbBlockReference
  2
_formato_A4
 10
297.0000000000001
 20
0.0
 30
0.0
  0
ENDBLK
  5
55
330
52
100
AcDbEntity
  8
0
100
AcDbBlockEnd
  0
BLOCK
  5
52E
330
526
100
AcDbEntity
  8
0
100
AcDbBlockBegin
  2
*D3
 70
     1
 10
0.0
 20
0.0
 30
0.0
  3
*D3
  1

  0
LINE
  5
527
330
526
100
AcDbEntity
  8
Bemaßungen_TC_020513_DIN_
  6
Continuous
 62
     7
100
AcDbLine
 10
160.9785022473488
 20
135.3383507937871
 30
0.0
 11
160.9785022473488
 21
82.3383507937871
 31
0.0
  0
LINE
  5
528
330
526
100
AcDbEntity
  8
Bemaßungen_TC_020513_DIN_
  6
Continuous
 62
     7
100
AcDbLine
 10
185.7285022473524
 20
135.3383507937871
 30
0.0
 11
158.9785022473488
 21
135.3383507937871
 31
0.0
  0
LINE
  5
529
330
526
100
AcDbEntity
  8
Bemaßungen_TC_020513_DIN_
  6
Continuous
 62
     7
100
AcDbLine
 10
175.9785022473488
 20
82.3383507937871
 30
0.0
 11
158.9785022473488
 21
82.3383507937871
 31
0.0
  0
SOLID
  5
52A
330
526
100
AcDbEntity
  8
Bemaßungen_TC_020513_DIN_
 62
     7
100
AcDbTrace
 10
160.6493710033803
 20
84.8383507937871
 30
0.0
 11
161.3076334913173
 21
84.8383507937871
 31
0.0
 12
160.9785022473488
 22
82.3383507937871
 32
0.0
 13
160.9785022473488
 23
82.3383507937871
 33
0.0
  0
SOLID
  5
52B
330
526
100
AcDbEntity
  8
Bemaßungen_TC_020513_DIN_
 62
     7
100
AcDbTrace
 10
161.3076334913173
 20
132.8383507937871
 30
0.0
 11
160.6493710033803
 21
132.8383507937871
 31
0.0
 12
160.9785022473488
 22
135.3383507937871
 32
0.0
 13
160.9785022473488
 23
135.3383507937871
 33
0.0
  0
MTEXT
  5
52D
330
526
100
AcDbEntity
  8
Bemaßungen_TC_020513_DIN_
 62
     7
100
AcDbMText
 10
157.9864322426656
 20
107.7431961780527
 30
0.0
 40
3.5
 41
0.0
 71
     7
 72
     1
  1
53
  7
CONVERTER_13
 11
0.0
 21
1.0
 31
0.0
 73
     1
 44
0.45454545454545
  0
ENDBLK
  5
52F
330
526
100
AcDbEntity
  8
0
100
AcDbBlockEnd
  0
BLOCK
  5
539
330
532
100
AcDbEntity
  8
0
100
AcDbBlockBegin
  2
*D4
 70
     1
 10
0.0
 20
0.0
 30
0.0
  3
*D4
  1

  0
LINE
  5
533
330
532
100
AcDbEntity
  8
Bemaßungen_TC_020513_DIN_
  6
Continuous
 62
     7
100
AcDbLine
 10
244.9785022473486
 20
77.33835079378687
 30
0.0
 11
244.9785022473486
 21
91.33835079378687
 31
0.0
  0
LINE
  5
534
330
532
100
AcDbEntity
  8
Bemaßungen_TC_020513_DIN_
  6
Continuous
 62
     7
100
AcDbLine
 10
229.9785022473485
 20
82.33835079378687
 30
0.0
 11
246.9785022473486
 21
82.33835079378687
 31
0.0
  0
LINE
  5
535
330
532
100
AcDbEntity
  8
Bemaßungen_TC_020513_DIN_
  6
Continuous
 62
     7
100
AcDbLine
 10
229.9785022473485
 20
86.33835079378687
 30
0.0
 11
246.9785022473486
 21
86.33835079378687
 31
0.0
  0
SOLID
  5
536
330
532
100
AcDbEntity
  8
Bemaßungen_TC_020513_DIN_
 62
     7
100
AcDbTrace
 10
244.6493710033801
 20
88.83835079378687
 30
0.0
 11
245.3076334913171
 21
88.83835079378687
 31
0.0
 12
244.9785022473486
 22
86.33835079378687
 32
0.0
 13
244.9785022473486
 23
86.33835079378687
 33
0.0
  0
SOLID
  5
537
330
532
100
AcDbEntity
  8
Bemaßungen_TC_020513_DIN_
 62
     7
100
AcDbTrace
 10
245.3076334913171
 20
79.83835079378687
 30
0.0
 11
244.6493710033801
 21
79.83835079378687
 31
0.0
 12
244.9785022473486
 22
82.33835079378687
 32
0.0
 13
244.9785022473486
 23
82.33835079378687
 33
0.0
  0
MTEXT
  5
538
330
532
100
AcDbEntity
  8
Bemaßungen_TC_020513_DIN_
 62
     7
100
AcDbMText
 10
242.0715370732191
 20
83.86291423171326
 30
0.0
 40
3.5
 41
0.0
 71
     7
 72
     1
  1
4
  7
CONVERTER_13
 11
0.0
 21
1.0
 31
0.0
 73
     1
 44
0.45454545454545
  0
ENDBLK
  5
53A
330
532
100
AcDbEntity
  8
0
100
AcDbBlockEnd
  0
BLOCK
  5
544
330
53D
100
AcDbEntity
  8
0
100
AcDbBlockBegin
  2
*D5
 70
     1
 10
0.0
 20
0.0
 30
0.0
  3
*D5
  1

  0
LINE
  5
53E
330
53D
100
AcDbEntity
  8
Bemaßungen_TC_020513_DIN_
  6
Continuous
 62
     7
100
AcDbLine
 10
228.9785022473487
 20
60.92258930583591
 30
0.0
 11
176.9785022473487
 21
60.92258930583591
 31
0.0
  0
LINE
  5
53F
330
53D
100
AcDbEntity
  8
Bemaßungen_TC_020513_DIN_
  6
Continuous
 62
     7
100
AcDbLine
 10
228.9785022473487
 20
83.33835079378696
 30
0.0
 11
228.9785022473487
 21
58.92258930583591
 31
0.0
  0
LINE
  5
540
330
53D
100
AcDbEntity
  8
Bemaßungen_TC_020513_DIN_
  6
Continuous
 62
     7
100
AcDbLine
 10
176.9785022473487
 20
83.33835079378696
 30
0.0
 11
176.9785022473487
 21
58.92258930583591
 31
0.0
  0
SOLID
  5
541
330
53D
100
AcDbEntity
  8
Bemaßungen_TC_020513_DIN_
 62
     7
100
AcDbTrace
 10
179.4785022473487
 20
61.2517205498044
 30
0.0
 11
179.4785022473487
 21
60.59345806186742
 31
0.0
 12
176.9785022473487
 22
60.92258930583591
 32
0.0
 13
176.9785022473487
 23
60.92258930583591
 33
0.0
  0
SOLID
  5
542
330
53D
100
AcDbEntity
  8
Bemaßungen_TC_020513_DIN_
 62
     7
100
AcDbTrace
 10
226.4785022473487
 20
60.59345806186742
 30
0.0
 11
226.4785022473487
 21
61.2517205498044
 31
0.0
 12
228.9785022473487
 22
60.92258930583591
 32
0.0
 13
228.9785022473487
 23
60.92258930583591
 33
0.0
  0
MTEXT
  5
543
330
53D
100
AcDbEntity
  8
Bemaßungen_TC_020513_DIN_
 62
     7
100
AcDbMText
 10
201.9187534979172
 20
63.91227186167881
 30
0.0
 40
3.5
 41
0.0
 71
     7
 72
     1
  1
52
  7
CONVERTER_13
 11
0.9999999999970619
 21
2.424068405545306E-6
 31
0.0
 73
     1
 44
0.45454545454545
  0
ENDBLK
  5
545
330
53D
100
AcDbEntity
  8
0
100
AcDbBlockEnd
  0
BLOCK
  5
54F
330
548
100
AcDbEntity
  8
0
100
AcDbBlockBegin
  2
*D6
 70
     1
 10
0.0
 20
0.0
 30
0.0
  3
*D6
  1

  0
LINE
  5
549
330
548
100
AcDbEntity
  8
Bemaßungen_TC_020513_DIN_
  6
Continuous
 62
     7
100
AcDbLine
 10
182.978502247351
 20
69.83835079378693
 30
0.0
 11
222.978502247351
 21
69.83835079378693
 31
0.0
  0
LINE
  5
54A
330
548
100
AcDbEntity
  8
Bemaßungen_TC_020513_DIN_
  6
Continuous
 62
     7
100
AcDbLine
 10
182.978502247351
 20
83.33835079378693
 30
0.0
 11
182.978502247351
 21
67.83835079378693
 31
0.0
  0
LINE
  5
54B
330
548
100
AcDbEntity
  8
Bemaßungen_TC_020513_DIN_
  6
Continuous
 62
     7
100
AcDbLine
 10
222.978502247351
 20
78.83835079378693
 30
0.0
 11
222.978502247351
 21
67.83835079378693
 31
0.0
  0
SOLID
  5
54C
330
548
100
AcDbEntity
  8
Bemaßungen_TC_020513_DIN_
 62
     7
100
AcDbTrace
 10
220.478502247351
 20
69.50921954981844
 30
0.0
 11
220.478502247351
 21
70.16748203775542
 31
0.0
 12
222.978502247351
 22
69.83835079378693
 32
0.0
 13
222.978502247351
 23
69.83835079378693
 33
0.0
  0
SOLID
  5
54D
330
548
100
AcDbEntity
  8
Bemaßungen_TC_020513_DIN_
 62
     7
100
AcDbTrace
 10
185.478502247351
 20
70.16748203775542
 30
0.0
 11
185.478502247351
 21
69.50921954981844
 31
0.0
 12
182.978502247351
 22
69.83835079378693
 32
0.0
 13
182.978502247351
 23
69.83835079378693
 33
0.0
  0
MTEXT
  5
54E
330
548
100
AcDbEntity
  8
Bemaßungen_TC_020513_DIN_
 62
     7
100
AcDbMText
 10
201.8188865129263
 20
72.8280333496298
 30
0.0
 40
3.5
 41
0.0
 71
     7
 72
     1
  1
40
  7
CONVERTER_13
 11
0.9999999999970619
 21
2.424068405545306E-6
 31
0.0
 73
     1
 44
0.45454545454545
  0
ENDBLK
  5
550
330
548
100
AcDbEntity
  8
0
100
AcDbBlockEnd
  0
BLOCK
  5
55A
330
553
100
AcDbEntity
  8
0
100
AcDbBlockBegin
  2
*D7
 70
     1
 10
0.0
 20
0.0
 30
0.0
  3
*D7
  1

  0
LINE
  5
554
330
553
100
AcDbEntity
  8
Bemaßungen_TC_020513_DIN_
  6
Continuous
 62
     7
100
AcDbLine
 10
132.8328961617758
 20
60.92258930583591
 30
0.0
 11
50.83289616177581
 21
60.92258930583591
 31
0.0
  0
LINE
  5
555
330
553
100
AcDbEntity
  8
Bemaßungen_TC_020513_DIN_
  6
Continuous
 62
     7
100
AcDbLine
 10
132.8328961617758
 20
83.33835079378696
 30
0.0
 11
132.8328961617758
 21
58.92258930583591
 31
0.0
  0
LINE
  5
556
330
553
100
AcDbEntity
  8
Bemaßungen_TC_020513_DIN_
  6
Continuous
 62
     7
100
AcDbLine
 10
50.83289616177581
 20
83.33835079378696
 30
0.0
 11
50.83289616177581
 21
58.92258930583591
 31
0.0
  0
SOLID
  5
557
330
553
100
AcDbEntity
  8
Bemaßungen_TC_020513_DIN_
 62
     7
100
AcDbTrace
 10
53.33289616177581
 20
61.2517205498044
 30
0.0
 11
53.33289616177581
 21
60.59345806186742
 31
0.0
 12
50.83289616177581
 22
60.92258930583591
 32
0.0
 13
50.83289616177581
 23
60.92258930583591
 33
0.0
  0
SOLID
  5
558
330
553
100
AcDbEntity
  8
Bemaßungen_TC_020513_DIN_
 62
     7
100
AcDbTrace
 10
130.3328961617758
 20
60.59345806186742
 30
0.0
 11
130.3328961617758
 21
61.2517205498044
 31
0.0
 12
132.8328961617758
 22
60.92258930583591
 32
0.0
 13
132.8328961617758
 23
60.92258930583591
 33
0.0
  0
MTEXT
  5
559
330
553
100
AcDbEntity
  8
Bemaßungen_TC_020513_DIN_
 62
     7
100
AcDbMText
 10
90.77075996350388
 20
63.91227186167881
 30
0.0
 40
3.5
 41
0.0
 71
     7
 72
     1
  1
82
  7
CONVERTER_13
 11
0.9999999999970619
 21
2.424068405545306E-6
 31
0.0
 73
     1
 44
0.45454545454545
  0
ENDBLK
  5
55B
330
553
100
AcDbEntity
  8
0
100
AcDbBlockEnd
  0
BLOCK
  5
565
330
55E
100
AcDbEntity
  8
0
100
AcDbBlockBegin
  2
*D8
 70
     1
 10
0.0
 20
0.0
 30
0.0
  3
*D8
  1

  0
LINE
  5
55F
330
55E
100
AcDbEntity
  8
Bemaßungen_TC_020513_DIN_
  6
Continuous
 62
     7
100
AcDbLine
 10
56.83289616177571
 20
69.83835079378693
 30
0.0
 11
126.8328961617757
 21
69.83835079378693
 31
0.0
  0
LINE
  5
560
330
55E
100
AcDbEntity
  8
Bemaßungen_TC_020513_DIN_
  6
Continuous
 62
     7
100
AcDbLine
 10
56.83289616177571
 20
78.83835079378693
 30
0.0
 11
56.83289616177571
 21
67.83835079378693
 31
0.0
  0
LINE
  5
561
330
55E
100
AcDbEntity
  8
Bemaßungen_TC_020513_DIN_
  6
Continuous
 62
     7
100
AcDbLine
 10
126.8328961617757
 20
78.83835079378693
 30
0.0
 11
126.8328961617757
 21
67.83835079378693
 31
0.0
  0
SOLID
  5
562
330
55E
100
AcDbEntity
  8
Bemaßungen_TC_020513_DIN_
 62
     7
100
AcDbTrace
 10
124.3328961617757
 20
69.50921954981844
 30
0.0
 11
124.3328961617757
 21
70.16748203775542
 31
0.0
 12
126.8328961617757
 22
69.83835079378693
 32
0.0
 13
126.8328961617757
 23
69.83835079378693
 33
0.0
  0
SOLID
  5
563
330
55E
100
AcDbEntity
  8
Bemaßungen_TC_020513_DIN_
 62
     7
100
AcDbTrace
 10
59.33289616177571
 20
70.16748203775542
 30
0.0
 11
59.33289616177571
 21
69.50921954981844
 31
0.0
 12
56.83289616177571
 22
69.83835079378693
 32
0.0
 13
56.83289616177571
 23
69.83835079378693
 33
0.0
  0
MTEXT
  5
564
330
55E
100
AcDbEntity
  8
Bemaßungen_TC_020513_DIN_
 62
     7
100
AcDbMText
 10
90.75803486118458
 20
72.8280333496298
 30
0.0
 40
3.5
 41
0.0
 71
     7
 72
     1
  1
70
  7
CONVERTER_13
 11
0.9999999999970619
 21
2.424068405545306E-6
 31
0.0
 73
     1
 44
0.45454545454545
  0
ENDBLK
  5
566
330
55E
100
AcDbEntity
  8
0
100
AcDbBlockEnd
  0
BLOCK
  5
570
330
569
100
AcDbEntity
  8
0
100
AcDbBlockBegin
  2
*D9
 70
     1
 10
0.0
 20
0.0
 30
0.0
  3
*D9
  1

  0
LINE
  5
56A
330
569
100
AcDbEntity
  8
Bemaßungen_TC_020513_DIN_
  6
Continuous
 62
     7
100
AcDbLine
 10
40.83289616177576
 20
82.3383507937867
 30
0.0
 11
40.83289616177576
 21
153.3383507937867
 31
0.0
  0
LINE
  5
56B
330
569
100
AcDbEntity
  8
Bemaßungen_TC_020513_DIN_
  6
Continuous
 62
     7
100
AcDbLine
 10
49.83289616177578
 20
82.3383507937867
 30
0.0
 11
38.83289616177576
 21
82.3383507937867
 31
0.0
  0
LINE
  5
56C
330
569
100
AcDbEntity
  8
Bemaßungen_TC_020513_DIN_
  6
Continuous
 62
     7
100
AcDbLine
 10
58.83289616177578
 20
153.3383507937867
 30
0.0
 11
38.83289616177576
 21
153.3383507937867
 31
0.0
  0
SOLID
  5
56D
330
569
100
AcDbEntity
  8
Bemaßungen_TC_020513_DIN_
 62
     7
100
AcDbTrace
 10
41.16202740574425
 20
150.8383507937867
 30
0.0
 11
40.50376491780727
 21
150.8383507937867
 31
0.0
 12
40.83289616177576
 22
153.3383507937867
 32
0.0
 13
40.83289616177576
 23
153.3383507937867
 33
0.0
  0
SOLID
  5
56E
330
569
100
AcDbEntity
  8
Bemaßungen_TC_020513_DIN_
 62
     7
100
AcDbTrace
 10
40.50376491780727
 20
84.8383507937867
 30
0.0
 11
41.16202740574425
 21
84.8383507937867
 31
0.0
 12
40.83289616177576
 22
82.3383507937867
 32
0.0
 13
40.83289616177576
 23
82.3383507937867
 33
0.0
  0
MTEXT
  5
56F
330
569
100
AcDbEntity
  8
Bemaßungen_TC_020513_DIN_
 62
     7
100
AcDbMText
 10
37.92031276226582
 20
117.2820115486753
 30
0.0
 40
3.5
 41
0.0
 71
     7
 72
     1
  1
71
  7
CONVERTER_13
 11
0.0
 21
1.0
 31
0.0
 73
     1
 44
0.45454545454545
  0
ENDBLK
  5
571
330
569
100
AcDbEntity
  8
0
100
AcDbBlockEnd
  0
BLOCK
  5
57B
330
574
100
AcDbEntity
  8
0
100
AcDbBlockBegin
  2
*D10
 70
     1
 10
0.0
 20
0.0
 30
0.0
  3
*D10
  1

  0
LINE
  5
575
330
574
100
AcDbEntity
  8
Bemaßungen_TC_020513_DIN_
  6
Continuous
 62
     7
100
AcDbLine
 10
176.9785022473491
 20
160.3383507937867
 30
0.0
 11
248.912452219072
 21
160.3383507937867
 31
0.0
  0
LINE
  5
576
330
574
100
AcDbEntity
  8
Bemaßungen_TC_020513_DIN_
  6
Continuous
 62
     7
100
AcDbLine
 10
176.9785022473491
 20
85.3383507937867
 30
0.0
 11
176.9785022473491
 21
162.3383507937867
 31
0.0
  0
LINE
  5
577
330
574
100
AcDbEntity
  8
Bemaßungen_TC_020513_DIN_
  6
Continuous
 62
     7
100
AcDbLine
 10
248.912452219072
 20
118.3383507937867
 30
0.0
 11
248.912452219072
 21
162.3383507937867
 31
0.0
  0
SOLID
  5
578
330
574
100
AcDbEntity
  8
Bemaßungen_TC_020513_DIN_
 62
     7
100
AcDbTrace
 10
246.412452219072
 20
160.0092195498182
 30
0.0
 11
246.412452219072
 21
160.6674820377551
 31
0.0
 12
248.912452219072
 22
160.3383507937867
 32
0.0
 13
248.912452219072
 23
160.3383507937867
 33
0.0
  0
SOLID
  5
579
330
574
100
AcDbEntity
  8
Bemaßungen_TC_020513_DIN_
 62
     7
100
AcDbTrace
 10
179.4785022473491
 20
160.6674820377551
 30
0.0
 11
179.4785022473491
 21
160.0092195498182
 31
0.0
 12
176.9785022473491
 22
160.3383507937867
 32
0.0
 13
176.9785022473491
 23
160.3383507937867
 33
0.0
  0
MTEXT
  5
57A
330
574
100
AcDbEntity
  8
Bemaßungen_TC_020513_DIN_
 62
     7
100
AcDbMText
 10
211.9000531768213
 20
163.2509341932967
 30
0.0
 40
3.5
 41
0.0
 71
     7
 72
     1
  1
72
  7
CONVERTER_13
 11
0.9999999999970619
 21
2.424068405545306E-6
 31
0.0
 73
     1
 44
0.45454545454545
  0
ENDBLK
  5
57C
330
574
100
AcDbEntity
  8
0
100
AcDbBlockEnd
  0
BLOCK
  5
586
330
57F
100
AcDbEntity
  8
0
100
AcDbBlockBegin
  2
*D11
 70
     1
 10
0.0
 20
0.0
 30
0.0
  3
*D11
  1

  0
LINE
  5
580
330
57F
100
AcDbEntity
  8
Bemaßungen_TC_020513_DIN_
  6
Continuous
 62
     7
100
AcDbLine
 10
127.8328961617758
 20
160.3383507937867
 30
0.0
 11
55.83289616177569
 21
160.3383507937867
 31
0.0
  0
LINE
  5
581
330
57F
100
AcDbEntity
  8
Bemaßungen_TC_020513_DIN_
  6
Continuous
 62
     7
100
AcDbLine
 10
127.8328961617758
 20
133.3383507937867
 30
0.0
 11
127.8328961617758
 21
162.3383507937867
 31
0.0
  0
LINE
  5
582
330
57F
100
AcDbEntity
  8
Bemaßungen_TC_020513_DIN_
  6
Continuous
 62
     7
100
AcDbLine
 10
55.83289616177569
 20
133.3383507937867
 30
0.0
 11
55.83289616177569
 21
162.3383507937867
 31
0.0
  0
SOLID
  5
583
330
57F
100
AcDbEntity
  8
Bemaßungen_TC_020513_DIN_
 62
     7
100
AcDbTrace
 10
58.33289616177569
 20
160.6674820377551
 30
0.0
 11
58.33289616177569
 21
160.0092195498182
 31
0.0
 12
55.83289616177569
 22
160.3383507937867
 32
0.0
 13
55.83289616177569
 23
160.3383507937867
 33
0.0
  0
SOLID
  5
584
330
57F
100
AcDbEntity
  8
Bemaßungen_TC_020513_DIN_
 62
     7
100
AcDbTrace
 10
125.3328961617758
 20
160.0092195498182
 30
0.0
 11
125.3328961617758
 21
160.6674820377551
 31
0.0
 12
127.8328961617758
 22
160.3383507937867
 32
0.0
 13
127.8328961617758
 23
160.3383507937867
 33
0.0
  0
MTEXT
  5
585
330
57F
100
AcDbEntity
  8
Bemaßungen_TC_020513_DIN_
 62
     7
100
AcDbMText
 10
90.78747210538646
 20
163.2509341932967
 30
0.0
 40
3.5
 41
0.0
 71
     7
 72
     1
  1
72
  7
CONVERTER_13
 11
0.9999999999970619
 21
2.424068405545306E-6
 31
0.0
 73
     1
 44
0.45454545454545
  0
ENDBLK
  5
587
330
57F
100
AcDbEntity
  8
0
100
AcDbBlockEnd
  0
BLOCK
  5
591
330
58A
100
AcDbEntity
  8
0
100
AcDbBlockBegin
  2
*D12
 70
     1
 10
0.0
 20
0.0
 30
0.0
  3
*D12
  1

  0
LINE
  5
58B
330
58A
100
AcDbEntity
  8
Bemaßungen_TC_020513_DIN_
  6
Continuous
 62
     7
100
AcDbLine
 10
142.8328961617758
 20
87.17635079378687
 30
0.0
 11
142.8328961617758
 21
110.6603507937868
 31
0.0
  0
LINE
  5
58C
330
58A
100
AcDbEntity
  8
Bemaßungen_TC_020513_DIN_
  6
Continuous
 62
     7
100
AcDbLine
 10
133.8328961617758
 20
87.17635079378687
 30
0.0
 11
144.8328961617758
 21
87.17635079378687
 31
0.0
  0
LINE
  5
58D
330
58A
100
AcDbEntity
  8
Bemaßungen_TC_020513_DIN_
  6
Continuous
 62
     7
100
AcDbLine
 10
133.8328961617757
 20
110.6603507937868
 30
0.0
 11
144.8328961617758
 21
110.6603507937868
 31
0.0
  0
SOLID
  5
58E
330
58A
100
AcDbEntity
  8
Bemaßungen_TC_020513_DIN_
 62
     7
100
AcDbTrace
 10
143.1620274057443
 20
108.1603507937868
 30
0.0
 11
142.5037649178073
 21
108.1603507937868
 31
0.0
 12
142.8328961617758
 22
110.6603507937868
 32
0.0
 13
142.8328961617758
 23
110.6603507937868
 33
0.0
  0
SOLID
  5
58F
330
58A
100
AcDbEntity
  8
Bemaßungen_TC_020513_DIN_
 62
     7
100
AcDbTrace
 10
142.5037649178073
 20
89.67635079378687
 30
0.0
 11
143.1620274057443
 21
89.67635079378687
 31
0.0
 12
142.8328961617758
 22
87.17635079378687
 32
0.0
 13
142.8328961617758
 23
87.17635079378687
 33
0.0
  0
MTEXT
  5
590
330
58A
100
AcDbEntity
  8
Bemaßungen_TC_020513_DIN_
 62
     7
100
AcDbMText
 10
139.8239714809506
 20
94.62757203071263
 30
0.0
 40
3.5
 41
0.0
 71
     7
 72
     1
  1
PG16
  7
CONVERTER_13
 11
0.0
 21
1.0
 31
0.0
 73
     1
 44
0.45454545454545
  0
ENDBLK
  5
592
330
58A
100
AcDbEntity
  8
0
100
AcDbBlockEnd
  0
ENDSEC
  0
SECTION
  2
ENTITIES
  0
INSERT
  5
56
330
1F
100
AcDbEntity
  8
0
100
AcDbBlockReference
  2
A4_oriz
 10
297.0000000000001
 20
0.0
 30
0.0
  0
POINT
  5
B2
330
1F
100
AcDbEntity
  8
Bemaßungen_TC_020513_DIN_
 62
     7
100
AcDbPoint
 10
186.7285022473526
 20
135.338350793787
 30
0.0
  0
POINT
  5
B3
330
1F
100
AcDbEntity
  8
Bemaßungen_TC_020513_DIN_
 62
     7
100
AcDbPoint
 10
176.9785022473486
 20
82.33835079378687
 30
0.0
  0
POINT
  5
B4
330
1F
100
AcDbEntity
  8
Bemaßungen_TC_020513_DIN_
 62
     7
100
AcDbPoint
 10
228.9785022473486
 20
82.33835079378687
 30
0.0
  0
POINT
  5
B5
330
1F
100
AcDbEntity
  8
Bemaßungen_TC_020513_DIN_
 62
     7
100
AcDbPoint
 10
228.9785022473486
 20
86.33835079378687
 30
0.0
  0
POINT
  5
B6
330
1F
100
AcDbEntity
  8
Bemaßungen_TC_020513_DIN_
 62
     7
100
AcDbPoint
 10
228.9785022473486
 20
84.33835079378687
 30
0.0
  0
POINT
  5
B7
330
1F
100
AcDbEntity
  8
Bemaßungen_TC_020513_DIN_
 62
     7
100
AcDbPoint
 10
176.9785022473486
 20
84.33835079378687
 30
0.0
  0
POINT
  5
B8
330
1F
100
AcDbEntity
  8
Bemaßungen_TC_020513_DIN_
 62
     7
100
AcDbPoint
 10
182.9785022473505
 20
84.33835079378687
 30
0.0
  0
POINT
  5
B9
330
1F
100
AcDbEntity
  8
Bemaßungen_TC_020513_DIN_
 62
     7
100
AcDbPoint
 10
222.9785022473505
 20
79.83835079378687
 30
0.0
  0
POINT
  5
BA
330
1F
100
AcDbEntity
  8
Bemaßungen_TC_020513_DIN_
 62
     7
100
AcDbPoint
 10
132.8328961617756
 20
84.33835079378687
 30
0.0
  0
POINT
  5
BB
330
1F
100
AcDbEntity
  8
Bemaßungen_TC_020513_DIN_
 62
     7
100
AcDbPoint
 10
50.83289616177578
 20
84.33835079378687
 30
0.0
  0
POINT
  5
BC
330
1F
100
AcDbEntity
  8
Bemaßungen_TC_020513_DIN_
 62
     7
100
AcDbPoint
 10
56.83289616177578
 20
79.83835079378687
 30
0.0
  0
POINT
  5
BD
330
1F
100
AcDbEntity
  8
Bemaßungen_TC_020513_DIN_
 62
     7
100
AcDbPoint
 10
126.8328961617756
 20
79.83835079378687
 30
0.0
  0
POINT
  5
BE
330
1F
100
AcDbEntity
  8
Bemaßungen_TC_020513_DIN_
 62
     7
100
AcDbPoint
 10
50.83289616177578
 20
82.33835079378687
 30
0.0
  0
POINT
  5
BF
330
1F
100
AcDbEntity
  8
Bemaßungen_TC_020513_DIN_
 62
     7
100
AcDbPoint
 10
59.83289616177578
 20
153.338350793787
 30
0.0
  0
POINT
  5
C0
330
1F
100
AcDbEntity
  8
Bemaßungen_TC_020513_DIN_
 62
     7
100
AcDbPoint
 10
176.9785022473486
 20
84.33835079378687
 30
0.0
  0
POINT
  5
C1
330
1F
100
AcDbEntity
  8
Bemaßungen_TC_020513_DIN_
 62
     7
100
AcDbPoint
 10
248.9124522190716
 20
117.338350793787
 30
0.0
  0
POINT
  5
C2
330
1F
100
AcDbEntity
  8
Bemaßungen_TC_020513_DIN_
 62
     7
100
AcDbPoint
 10
127.8328961617756
 20
132.338350793787
 30
0.0
  0
POINT
  5
C3
330
1F
100
AcDbEntity
  8
Bemaßungen_TC_020513_DIN_
 62
     7
100
AcDbPoint
 10
55.83289616177578
 20
132.338350793787
 30
0.0
  0
POINT
  5
C4
330
1F
100
AcDbEntity
  8
Bemaßungen_TC_020513_DIN_
 62
     7
100
AcDbPoint
 10
132.8328961617756
 20
87.17635079378697
 30
0.0
  0
POINT
  5
C5
330
1F
100
AcDbEntity
  8
Bemaßungen_TC_020513_DIN_
 62
     7
100
AcDbPoint
 10
132.8328961617756
 20
110.660350793787
 30
0.0
  0
LINE
  5
37E
330
1F
100
AcDbEntity
  8
Mittelpunktmarkierung_TC_020513_DIN_
  6
CHAIN
 62
     7
100
AcDbLine
 10
202.9785022473505
 20
135.538350793787
 30
0.0
 11
202.9785022473505
 21
121.138350793787
 31
0.0
  0
LINE
  5
37F
330
1F
100
AcDbEntity
  8
Mittelpunktmarkierung_TC_020513_DIN_
  6
CHAIN
 62
     7
100
AcDbLine
 10
210.1785022473506
 20
128.338350793787
 30
0.0
 11
195.7785022473506
 21
128.338350793787
 31
0.0
  0
LINE
  5
380
330
1F
100
AcDbEntity
  8
Mittelpunktmarkierung_TC_020513_DIN_
  6
CHAIN
 62
     7
100
AcDbLine
 10
199.9785022473515
 20
121.588350793787
 30
0.0
 11
199.9785022473515
 21
113.088350793787
 31
0.0
  0
LINE
  5
381
330
1F
100
AcDbEntity
  8
Mittelpunktmarkierung_TC_020513_DIN_
  6
CHAIN
 62
     7
100
AcDbLine
 10
204.2285022473515
 20
117.338350793787
 30
0.0
 11
195.7285022473515
 21
117.338350793787
 31
0.0
  0
LINE
  5
382
330
1F
100
AcDbEntity
  8
Mittelpunktmarkierung_TC_020513_DIN_
  6
CHAIN
 62
     7
100
AcDbLine
 10
202.9785022473696
 20
113.160350793787
 30
0.0
 11
202.9785022473696
 21
84.67635079378697
 31
0.0
  0
LINE
  5
383
330
1F
100
AcDbEntity
  8
Mittelpunktmarkierung_TC_020513_DIN_
  6
CHAIN
 62
     7
100
AcDbLine
 10
217.2205022473696
 20
98.91835079378697
 30
0.0
 11
188.7365022473695
 21
98.91835079378697
 31
0.0
  0
LINE
  5
384
330
1F
100
AcDbEntity
  8
Mittellinie_TC_020513_DIN_
  6
CHAIN
 62
     7
100
AcDbLine
 10
222.9785022473505
 20
79.83835079378687
 30
0.0
 11
222.9785022473505
 21
88.83835079378697
 31
0.0
  0
LINE
  5
385
330
1F
100
AcDbEntity
  8
Mittellinie_TC_020513_DIN_
  6
CHAIN
 62
     7
100
AcDbLine
 10
182.9785022473505
 20
79.83835079378687
 30
0.0
 11
182.9785022473505
 21
88.83835079378687
 31
0.0
  0
LINE
  5
386
330
1F
100
AcDbEntity
  8
Mittellinie_TC_020513_DIN_
  6
CHAIN
 62
     7
100
AcDbLine
 10
91.83289616177578
 20
80.43226825538648
 30
0.0
 11
91.83289616177578
 21
147.565295823574
 31
0.0
  0
LINE
  5
387
330
1F
100
AcDbEntity
  8
Mittellinie_TC_020513_DIN_
  6
CHAIN
 62
     7
100
AcDbLine
 10
123.3328961617756
 20
128.338350793787
 30
0.0
 11
128.9328961617756
 21
128.338350793787
 31
0.0
  0
LINE
  5
388
330
1F
100
AcDbEntity
  8
Mittellinie_TC_020513_DIN_
  6
CHAIN
 62
     7
100
AcDbLine
 10
118.6728961617756
 20
128.338350793787
 30
0.0
 11
126.9328961617756
 21
128.338350793787
 31
0.0
  0
LINE
  5
389
330
1F
100
AcDbEntity
  8
Mittellinie_TC_020513_DIN_
  6
CHAIN
 62
     7
100
AcDbLine
 10
56.73289616177576
 20
128.338350793787
 30
0.0
 11
64.9928961617758
 21
128.338350793787
 31
0.0
  0
LINE
  5
38A
330
1F
100
AcDbEntity
  8
Mittellinie_TC_020513_DIN_
  6
CHAIN
 62
     7
100
AcDbLine
 10
54.73289616177576
 20
128.338350793787
 30
0.0
 11
60.33289616177578
 21
128.338350793787
 31
0.0
  0
LINE
  5
38B
330
1F
100
AcDbEntity
  8
Mittellinie_TC_020513_DIN_
  6
CHAIN
 62
     7
100
AcDbLine
 10
56.83289616177578
 20
79.83835079378687
 30
0.0
 11
56.83289616177578
 21
88.83835079378697
 31
0.0
  0
LINE
  5
38C
330
1F
100
AcDbEntity
  8
Mittellinie_TC_020513_DIN_
  6
CHAIN
 62
     7
100
AcDbLine
 10
48.33289616177578
 20
98.91835079378697
 30
0.0
 11
66.33289616177578
 21
98.91835079378697
 31
0.0
  0
LINE
  5
38D
330
1F
100
AcDbEntity
  8
Mittellinie_TC_020513_DIN_
  6
CHAIN
 62
     7
100
AcDbLine
 10
117.3328961617756
 20
98.91835079378697
 30
0.0
 11
135.3328961617756
 21
98.91835079378697
 31
0.0
  0
LINE
  5
38E
330
1F
100
AcDbEntity
  8
Mittellinie_TC_020513_DIN_
  6
CHAIN
 62
     7
100
AcDbLine
 10
126.8328961617756
 20
79.83835079378687
 30
0.0
 11
126.8328961617756
 21
88.83835079378697
 31
0.0
  0
LINE
  5
38F
330
1F
100
AcDbEntity
  8
Sichtbare_Kanten_TC_020513_DIN_
  6
Continuous
 62
     7
100
AcDbLine
 10
233.7785022473506
 20
118.921713491196
 30
0.0
 11
233.7785022473525
 21
116.121713491196
 31
0.0
  0
LINE
  5
390
330
1F
100
AcDbEntity
  8
Sichtbare_Kanten_TC_020513_DIN_
  6
Continuous
 62
     7
100
AcDbLine
 10
226.7785022473546
 20
116.121713491196
 30
0.0
 11
226.7785022473506
 21
118.921713491196
 31
0.0
  0
LINE
  5
391
330
1F
100
AcDbEntity
  8
Sichtbare_Kanten_TC_020513_DIN_
  6
Continuous
 62
     7
100
AcDbLine
 10
233.7785022473525
 20
116.121713491196
 30
0.0
 11
226.7785022473546
 21
116.121713491196
 31
0.0
  0
LINE
  5
392
330
1F
100
AcDbEntity
  8
Sichtbare_Kanten_TC_020513_DIN_
  6
Continuous
 62
     7
100
AcDbLine
 10
226.7785022473506
 20
121.338350793787
 30
0.0
 11
226.7785022473506
 21
118.921713491196
 31
0.0
  0
LINE
  5
393
330
1F
100
AcDbEntity
  8
Sichtbare_Kanten_TC_020513_DIN_
  6
Continuous
 62
     7
100
AcDbLine
 10
214.9785022473515
 20
122.338350793787
 30
0.0
 11
225.7785022473506
 21
122.338350793787
 31
0.0
  0
LINE
  5
394
330
1F
100
AcDbEntity
  8
Sichtbare_Kanten_TC_020513_DIN_
  6
Continuous
 62
     7
100
AcDbLine
 10
195.9785022473515
 20
128.338350793787
 30
0.0
 11
195.9785022473515
 21
114.838350793787
 31
0.0
  0
LINE
  5
395
330
1F
100
AcDbEntity
  8
Sichtbare_Kanten_TC_020513_DIN_
  6
Continuous
 62
     7
100
AcDbLine
 10
225.7785022473506
 20
129.338350793787
 30
0.0
 11
212.9785022473515
 21
129.338350793787
 31
0.0
  0
LINE
  5
396
330
1F
100
AcDbEntity
  8
Sichtbare_Kanten_TC_020513_DIN_
  6
Continuous
 62
     7
100
AcDbLine
 10
233.7785022473506
 20
118.921713491196
 30
0.0
 11
233.7785022473506
 21
121.338350793787
 31
0.0
  0
LINE
  5
397
330
1F
100
AcDbEntity
  8
Sichtbare_Kanten_TC_020513_DIN_
  6
Continuous
 62
     7
100
AcDbLine
 10
234.1673911362426
 20
117.521713491196
 30
0.0
 11
237.2785022473556
 21
117.521713491196
 31
0.0
  0
LINE
  5
398
330
1F
100
AcDbEntity
  8
Sichtbare_Kanten_TC_020513_DIN_
  6
Continuous
 62
     7
100
AcDbLine
 10
234.1673911362426
 20
117.521713491196
 30
0.0
 11
233.7785022473525
 21
117.521713491196
 31
0.0
  0
LINE
  5
399
330
1F
100
AcDbEntity
  8
Sichtbare_Kanten_TC_020513_DIN_
  6
Continuous
 62
     7
100
AcDbLine
 10
226.7785022473546
 20
117.521713491196
 30
0.0
 11
226.7408473323476
 21
117.521713491196
 31
0.0
  0
LINE
  5
39A
330
1F
100
AcDbEntity
  8
Sichtbare_Kanten_TC_020513_DIN_
  6
Continuous
 62
     7
100
AcDbLine
 10
226.6408473323475
 20
116.021713491196
 30
0.0
 11
226.6408473323475
 21
115.184058576189
 31
0.0
  0
LINE
  5
39B
330
1F
100
AcDbEntity
  8
Sichtbare_Kanten_TC_020513_DIN_
  6
Continuous
 62
     7
100
AcDbLine
 10
225.2408473323476
 20
116.021713491196
 30
0.0
 11
225.2408473323476
 21
115.184058576189
 31
0.0
  0
LINE
  5
39C
330
1F
100
AcDbEntity
  8
Sichtbare_Kanten_TC_020513_DIN_
  6
Continuous
 62
     7
100
AcDbLine
 10
226.6408473323475
 20
115.184058576189
 30
0.0
 11
225.2408473323476
 21
115.184058576189
 31
0.0
  0
LINE
  5
39D
330
1F
100
AcDbEntity
  8
Sichtbare_Kanten_TC_020513_DIN_
  6
Continuous
 62
     7
100
AcDbLine
 10
237.2785022473556
 20
116.121713491196
 30
0.0
 11
237.2785022473556
 21
117.521713491196
 31
0.0
  0
LINE
  5
39E
330
1F
100
AcDbEntity
  8
Sichtbare_Kanten_TC_020513_DIN_
  6
Continuous
 62
     7
100
AcDbLine
 10
226.7785022473546
 20
116.121713491196
 30
0.0
 11
226.7408473323476
 21
116.121713491196
 31
0.0
  0
LINE
  5
39F
330
1F
100
AcDbEntity
  8
Sichtbare_Kanten_TC_020513_DIN_
  6
Continuous
 62
     7
100
AcDbLine
 10
234.1673911362426
 20
116.121713491196
 30
0.0
 11
233.7785022473525
 21
116.121713491196
 31
0.0
  0
LINE
  5
3A0
330
1F
100
AcDbEntity
  8
Sichtbare_Kanten_TC_020513_DIN_
  6
Continuous
 62
     7
100
AcDbLine
 10
234.1673911362426
 20
116.121713491196
 30
0.0
 11
237.2785022473556
 21
116.121713491196
 31
0.0
  0
LINE
  5
3A1
330
1F
100
AcDbEntity
  8
Sichtbare_Kanten_TC_020513_DIN_
  6
Continuous
 62
     7
100
AcDbLine
 10
219.2285022473526
 20
131.338350793787
 30
0.0
 11
225.2285022473546
 21
131.338350793787
 31
0.0
  0
LINE
  5
3A2
330
1F
100
AcDbEntity
  8
Sichtbare_Kanten_TC_020513_DIN_
  6
Continuous
 62
     7
100
AcDbLine
 10
225.2285022473546
 20
129.338350793787
 30
0.0
 11
225.2285022473546
 21
131.338350793787
 31
0.0
  0
LINE
  5
3A3
330
1F
100
AcDbEntity
  8
Sichtbare_Kanten_TC_020513_DIN_
  6
Continuous
 62
     7
100
AcDbLine
 10
225.2285022473546
 20
86.33835079378687
 30
0.0
 11
225.2285022473546
 21
122.338350793787
 31
0.0
  0
LINE
  5
3A4
330
1F
100
AcDbEntity
  8
Sichtbare_Kanten_TC_020513_DIN_
  6
Continuous
 62
     7
100
AcDbLine
 10
196.6539469270157
 20
131.338350793787
 30
0.0
 11
186.7285022473526
 21
131.338350793787
 31
0.0
  0
LINE
  5
3A5
330
1F
100
AcDbEntity
  8
Sichtbare_Kanten_TC_020513_DIN_
  6
Continuous
 62
     7
100
AcDbLine
 10
219.2285022473526
 20
131.338350793787
 30
0.0
 11
212.3628354393466
 21
131.338350793787
 31
0.0
  0
LINE
  5
3A6
330
1F
100
AcDbEntity
  8
Sichtbare_Kanten_TC_020513_DIN_
  6
Continuous
 62
     7
100
AcDbLine
 10
180.7285022473546
 20
86.33835079378687
 30
0.0
 11
180.7285022473546
 21
131.338350793787
 31
0.0
  0
LINE
  5
3A7
330
1F
100
AcDbEntity
  8
Sichtbare_Kanten_TC_020513_DIN_
  6
Continuous
 62
     7
100
AcDbLine
 10
180.7285022473546
 20
131.338350793787
 30
0.0
 11
186.7285022473526
 21
131.338350793787
 31
0.0
  0
LINE
  5
3A8
330
1F
100
AcDbEntity
  8
Sichtbare_Kanten_TC_020513_DIN_
  6
Continuous
 62
     7
100
AcDbLine
 10
225.0285022473546
 20
135.338350793787
 30
0.0
 11
219.2285022473526
 21
135.338350793787
 31
0.0
  0
LINE
  5
3A9
330
1F
100
AcDbEntity
  8
Sichtbare_Kanten_TC_020513_DIN_
  6
Continuous
 62
     7
100
AcDbLine
 10
225.0285022473546
 20
135.338350793787
 30
0.0
 11
225.0285022473546
 21
131.338350793787
 31
0.0
  0
LINE
  5
3AA
330
1F
100
AcDbEntity
  8
Sichtbare_Kanten_TC_020513_DIN_
  6
Continuous
 62
     7
100
AcDbLine
 10
217.1156692095316
 20
135.338350793787
 30
0.0
 11
219.2285022473526
 21
135.338350793787
 31
0.0
  0
LINE
  5
3AB
330
1F
100
AcDbEntity
  8
Sichtbare_Kanten_TC_020513_DIN_
  6
Continuous
 62
     7
100
AcDbLine
 10
186.7285022473526
 20
135.338350793787
 30
0.0
 11
205.9785022473526
 21
135.338350793787
 31
0.0
  0
LINE
  5
3AC
330
1F
100
AcDbEntity
  8
Sichtbare_Kanten_TC_020513_DIN_
  6
Continuous
 62
     7
100
AcDbLine
 10
186.7285022473526
 20
135.338350793787
 30
0.0
 11
180.9285022473545
 21
135.338350793787
 31
0.0
  0
LINE
  5
3AD
330
1F
100
AcDbEntity
  8
Sichtbare_Kanten_TC_020513_DIN_
  6
Continuous
 62
     7
100
AcDbLine
 10
180.9285022473545
 20
135.338350793787
 30
0.0
 11
180.9285022473545
 21
131.338350793787
 31
0.0
  0
LINE
  5
3AE
330
1F
100
AcDbEntity
  8
Sichtbare_Kanten_TC_020513_DIN_
  6
Continuous
 62
     7
100
AcDbLine
 10
228.9785022473486
 20
82.33835079378687
 30
0.0
 11
228.9785022473486
 21
86.33835079378687
 31
0.0
  0
LINE
  5
3AF
330
1F
100
AcDbEntity
  8
Sichtbare_Kanten_TC_020513_DIN_
  6
Continuous
 62
     7
100
AcDbLine
 10
176.9785022473486
 20
82.33835079378687
 30
0.0
 11
176.9785022473486
 21
86.33835079378687
 31
0.0
  0
LINE
  5
3B0
330
1F
100
AcDbEntity
  8
Sichtbare_Kanten_TC_020513_DIN_
  6
Continuous
 62
     7
100
AcDbLine
 10
228.9785022473486
 20
86.33835079378687
 30
0.0
 11
215.3085022473486
 21
86.33835079378687
 31
0.0
  0
LINE
  5
3B1
330
1F
100
AcDbEntity
  8
Sichtbare_Kanten_TC_020513_DIN_
  6
Continuous
 62
     7
100
AcDbLine
 10
190.6485022473486
 20
86.33835079378687
 30
0.0
 11
176.9785022473486
 21
86.33835079378687
 31
0.0
  0
LINE
  5
3B2
330
1F
100
AcDbEntity
  8
Sichtbare_Kanten_TC_020513_DIN_
  6
Continuous
 62
     7
100
AcDbLine
 10
228.9785022473486
 20
82.33835079378687
 30
0.0
 11
176.9785022473486
 21
82.33835079378687
 31
0.0
  0
LINE
  5
3B3
330
1F
100
AcDbEntity
  8
Sichtbare_Kanten_TC_020513_DIN_
  6
Continuous
 62
     7
100
AcDbLine
 10
190.6485022473486
 20
86.33835079378687
 30
0.0
 11
190.6485022473486
 21
98.91835079378697
 31
0.0
  0
LINE
  5
3B4
330
1F
100
AcDbEntity
  8
Sichtbare_Kanten_TC_020513_DIN_
  6
Continuous
 62
     7
100
AcDbLine
 10
215.3085022473486
 20
98.91835079378697
 30
0.0
 11
215.3085022473486
 21
86.33835079378687
 31
0.0
  0
LINE
  5
3B5
330
1F
100
AcDbEntity
  8
Sichtbare_Kanten_TC_020513_DIN_
  6
Continuous
 62
     7
100
AcDbLine
 10
232.5451395499466
 20
146.915973431373
 30
0.0
 11
232.5451395499466
 21
146.131974561654
 31
0.0
  0
LINE
  5
3B6
330
1F
100
AcDbEntity
  8
Sichtbare_Kanten_TC_020513_DIN_
  6
Continuous
 62
     7
100
AcDbLine
 10
232.5451395499466
 20
146.131974561654
 30
0.0
 11
232.5451395499466
 21
145.515973431373
 31
0.0
  0
LINE
  5
3B7
330
1F
100
AcDbEntity
  8
Sichtbare_Kanten_TC_020513_DIN_
  6
Continuous
 62
     7
100
AcDbLine
 10
201.3785022473506
 20
118.100695878779
 30
0.0
 11
201.3785022473515
 21
118.200695878779
 31
0.0
  0
LINE
  5
3B8
330
1F
100
AcDbEntity
  8
Sichtbare_Kanten_TC_020513_DIN_
  6
Continuous
 62
     7
100
AcDbLine
 10
198.4785022473515
 20
118.200695878779
 30
0.0
 11
198.4785022473505
 21
118.100695878779
 31
0.0
  0
LINE
  5
3B9
330
1F
100
AcDbEntity
  8
Sichtbare_Kanten_TC_020513_DIN_
  6
Continuous
 62
     7
100
AcDbLine
 10
229.7451395499466
 20
134.139159100285
 30
0.0
 11
230.5291356970106
 21
134.139159100285
 31
0.0
  0
LINE
  5
3BA
330
1F
100
AcDbEntity
  8
Sichtbare_Kanten_TC_020513_DIN_
  6
Continuous
 62
     7
100
AcDbLine
 10
230.5291356970106
 20
134.139159100285
 30
0.0
 11
231.1451395499466
 21
134.139159100285
 31
0.0
  0
LINE
  5
3BB
330
1F
100
AcDbEntity
  8
Sichtbare_Kanten_TC_020513_DIN_
  6
Continuous
 62
     7
100
AcDbLine
 10
231.2763086480946
 20
133.547493533848
 30
0.0
 11
230.7180195593366
 21
133.287159056295
 31
0.0
  0
LINE
  5
3BC
330
1F
100
AcDbEntity
  8
Sichtbare_Kanten_TC_020513_DIN_
  6
Continuous
 62
     7
100
AcDbLine
 10
230.7180195593366
 20
133.287159056295
 30
0.0
 11
230.0074777462436
 21
132.955827967411
 31
0.0
  0
LINE
  5
3BD
330
1F
100
AcDbEntity
  8
Sichtbare_Kanten_TC_020513_DIN_
  6
Continuous
 62
     7
100
AcDbLine
 10
233.8449043087425
 20
128.039122363598
 30
0.0
 11
231.2763086480946
 21
133.547493533848
 31
0.0
  0
LINE
  5
3BE
330
1F
100
AcDbEntity
  8
Sichtbare_Kanten_TC_020513_DIN_
  6
Continuous
 62
     7
100
AcDbLine
 10
230.0074777462436
 20
132.955827967411
 30
0.0
 11
232.5760734068916
 21
127.447456797162
 31
0.0
  0
LINE
  5
3BF
330
1F
100
AcDbEntity
  8
Sichtbare_Kanten_TC_020513_DIN_
  6
Continuous
 62
     7
100
AcDbLine
 10
233.8449043087425
 20
128.039122363598
 30
0.0
 11
234.4713775223316
 21
126.695646221545
 31
0.0
  0
LINE
  5
3C0
330
1F
100
AcDbEntity
  8
Sichtbare_Kanten_TC_020513_DIN_
  6
Continuous
 62
     7
100
AcDbLine
 10
234.4713775223316
 20
126.695646221545
 30
0.0
 11
233.2025466204806
 21
126.103980655108
 31
0.0
  0
LINE
  5
3C1
330
1F
100
AcDbEntity
  8
Sichtbare_Kanten_TC_020513_DIN_
  6
Continuous
 62
     7
100
AcDbLine
 10
233.2025466204806
 20
126.103980655108
 30
0.0
 11
232.5760734068916
 21
127.447456797162
 31
0.0
  0
LINE
  5
3C2
330
1F
100
AcDbEntity
  8
Sichtbare_Kanten_TC_020513_DIN_
  6
Continuous
 62
     7
100
AcDbLine
 10
198.4785022473505
 20
118.100695878779
 30
0.0
 11
198.4785022473505
 21
116.700695878779
 31
0.0
  0
LINE
  5
3C3
330
1F
100
AcDbEntity
  8
Sichtbare_Kanten_TC_020513_DIN_
  6
Continuous
 62
     7
100
AcDbLine
 10
198.4785022473505
 20
118.100695878779
 30
0.0
 11
198.9785022473505
 21
118.100695878779
 31
0.0
  0
LINE
  5
3C4
330
1F
100
AcDbEntity
  8
Sichtbare_Kanten_TC_020513_DIN_
  6
Continuous
 62
     7
100
AcDbLine
 10
198.9785022473505
 20
116.700695878779
 30
0.0
 11
198.4785022473505
 21
116.700695878779
 31
0.0
  0
LINE
  5
3C5
330
1F
100
AcDbEntity
  8
Sichtbare_Kanten_TC_020513_DIN_
  6
Continuous
 62
     7
100
AcDbLine
 10
200.8785022473506
 20
118.100695878779
 30
0.0
 11
198.9785022473505
 21
118.100695878779
 31
0.0
  0
LINE
  5
3C6
330
1F
100
AcDbEntity
  8
Sichtbare_Kanten_TC_020513_DIN_
  6
Continuous
 62
     7
100
AcDbLine
 10
198.9785022473505
 20
116.700695878779
 30
0.0
 11
200.8785022473506
 21
116.700695878779
 31
0.0
  0
LINE
  5
3C7
330
1F
100
AcDbEntity
  8
Sichtbare_Kanten_TC_020513_DIN_
  6
Continuous
 62
     7
100
AcDbLine
 10
200.8785022473506
 20
118.100695878779
 30
0.0
 11
201.3785022473506
 21
118.100695878779
 31
0.0
  0
LINE
  5
3C8
330
1F
100
AcDbEntity
  8
Sichtbare_Kanten_TC_020513_DIN_
  6
Continuous
 62
     7
100
AcDbLine
 10
201.3785022473506
 20
116.700695878779
 30
0.0
 11
200.8785022473506
 21
116.700695878779
 31
0.0
  0
LINE
  5
3C9
330
1F
100
AcDbEntity
  8
Sichtbare_Kanten_TC_020513_DIN_
  6
Continuous
 62
     7
100
AcDbLine
 10
201.3785022473506
 20
118.100695878779
 30
0.0
 11
201.3785022473506
 21
116.700695878779
 31
0.0
  0
LINE
  5
3CA
330
1F
100
AcDbEntity
  8
Sichtbare_Kanten_TC_020513_DIN_
  6
Continuous
 62
     7
100
AcDbLine
 10
237.4794149427426
 20
146.915973431373
 30
0.0
 11
232.5451395499466
 21
146.915973431373
 31
0.0
  0
LINE
  5
3CB
330
1F
100
AcDbEntity
  8
Sichtbare_Kanten_TC_020513_DIN_
  6
Continuous
 62
     7
100
AcDbLine
 10
232.5451395499466
 20
145.515973431373
 30
0.0
 11
237.4794149427426
 21
145.515973431373
 31
0.0
  0
LINE
  5
3CC
330
1F
100
AcDbEntity
  8
Sichtbare_Kanten_TC_020513_DIN_
  6
Continuous
 62
     7
100
AcDbLine
 10
238.9617768525386
 20
145.515973431373
 30
0.0
 11
238.9617768525386
 21
146.915973431373
 31
0.0
  0
LINE
  5
3CD
330
1F
100
AcDbEntity
  8
Sichtbare_Kanten_TC_020513_DIN_
  6
Continuous
 62
     7
100
AcDbLine
 10
238.9617768525386
 20
145.515973431373
 30
0.0
 11
237.4794149427426
 21
145.515973431373
 31
0.0
  0
LINE
  5
3CE
330
1F
100
AcDbEntity
  8
Sichtbare_Kanten_TC_020513_DIN_
  6
Continuous
 62
     7
100
AcDbLine
 10
237.4794149427426
 20
146.915973431373
 30
0.0
 11
238.9617768525386
 21
146.915973431373
 31
0.0
  0
LINE
  5
3CF
330
1F
100
AcDbEntity
  8
Sichtbare_Kanten_TC_020513_DIN_
  6
Continuous
 62
     7
100
AcDbLine
 10
229.7451395499466
 20
135.699336128782
 30
0.0
 11
229.7451395499466
 21
135.514040890058
 31
0.0
  0
LINE
  5
3D0
330
1F
100
AcDbEntity
  8
Sichtbare_Kanten_TC_020513_DIN_
  6
Continuous
 62
     7
100
AcDbLine
 10
229.7451395499466
 20
135.514040890058
 30
0.0
 11
229.7451395499466
 21
134.139159100285
 31
0.0
  0
LINE
  5
3D1
330
1F
100
AcDbEntity
  8
Sichtbare_Kanten_TC_020513_DIN_
  6
Continuous
 62
     7
100
AcDbLine
 10
198.4785022473515
 20
118.200695878779
 30
0.0
 11
198.4785022473515
 21
118.239738612653
 31
0.0
  0
LINE
  5
3D2
330
1F
100
AcDbEntity
  8
Sichtbare_Kanten_TC_020513_DIN_
  6
Continuous
 62
     7
100
AcDbLine
 10
205.9785022473515
 20
134.662906114124
 30
0.0
 11
205.9785022473515
 21
136.338350793787
 31
0.0
  0
LINE
  5
3D3
330
1F
100
AcDbEntity
  8
Sichtbare_Kanten_TC_020513_DIN_
  6
Continuous
 62
     7
100
AcDbLine
 10
205.9785022473515
 20
136.338350793787
 30
0.0
 11
208.2073801836876
 21
139.553485324486
 31
0.0
  0
LINE
  5
3D4
330
1F
100
AcDbEntity
  8
Sichtbare_Kanten_TC_020513_DIN_
  6
Continuous
 62
     7
100
AcDbLine
 10
208.2655042030216
 20
140.0115610608009
 30
0.0
 11
207.1998591945277
 21
142.897243196914
 31
0.0
  0
LINE
  5
3D5
330
1F
100
AcDbEntity
  8
Sichtbare_Kanten_TC_020513_DIN_
  6
Continuous
 62
     7
100
AcDbLine
 10
198.7182205665236
 20
153.338350793787
 30
0.0
 11
206.7182205665236
 21
153.338350793787
 31
0.0
  0
LINE
  5
3D6
330
1F
100
AcDbEntity
  8
Sichtbare_Kanten_TC_020513_DIN_
  6
Continuous
 62
     7
100
AcDbLine
 10
225.0039477737806
 20
148.181812062577
 30
0.0
 11
228.3451395499426
 21
146.134592377978
 31
0.0
  0
LINE
  5
3D7
330
1F
100
AcDbEntity
  8
Sichtbare_Kanten_TC_020513_DIN_
  6
Continuous
 62
     7
100
AcDbLine
 10
228.3451395499426
 20
135.699336128782
 30
0.0
 11
226.9785022473515
 21
135.699336128782
 31
0.0
  0
LINE
  5
3D8
330
1F
100
AcDbEntity
  8
Sichtbare_Kanten_TC_020513_DIN_
  6
Continuous
 62
     7
100
AcDbLine
 10
226.1942027211656
 20
136.078953784397
 30
0.0
 11
223.3706520104446
 21
139.64854196598
 31
0.0
  0
LINE
  5
3D9
330
1F
100
AcDbEntity
  8
Sichtbare_Kanten_TC_020513_DIN_
  6
Continuous
 62
     7
100
AcDbLine
 10
222.6683110751596
 20
139.73050055688
 30
0.0
 11
212.5545541859246
 21
131.73050055688
 31
0.0
  0
LINE
  5
3DA
330
1F
100
AcDbEntity
  8
Sichtbare_Kanten_TC_020513_DIN_
  6
Continuous
 62
     7
100
AcDbLine
 10
212.3666480090716
 20
131.381928665161
 30
0.0
 11
212.2395476537456
 21
129.92916495609
 31
0.0
  0
LINE
  5
3DB
330
1F
100
AcDbEntity
  8
Sichtbare_Kanten_TC_020513_DIN_
  6
Continuous
 62
     7
100
AcDbLine
 10
201.4146429089866
 20
118.338350793787
 30
0.0
 11
201.3785022473515
 21
118.338350793787
 31
0.0
  0
LINE
  5
3DC
330
1F
100
AcDbEntity
  8
Sichtbare_Kanten_TC_020513_DIN_
  6
Continuous
 62
     7
100
AcDbLine
 10
201.3785022473515
 20
118.338350793787
 30
0.0
 11
201.3785022473515
 21
118.200695878779
 31
0.0
  0
LINE
  5
3DD
330
1F
100
AcDbEntity
  8
Sichtbare_Kanten_TC_020513_DIN_
  6
Continuous
 62
     7
100
AcDbLine
 10
231.1451395499466
 20
134.139159100285
 30
0.0
 11
231.1451395499466
 21
135.514040890058
 31
0.0
  0
LINE
  5
3DE
330
1F
100
AcDbEntity
  8
Sichtbare_Kanten_TC_020513_DIN_
  6
Continuous
 62
     7
100
AcDbLine
 10
231.1451395499466
 20
135.514040890058
 30
0.0
 11
231.1451395499435
 21
135.699336128782
 31
0.0
  0
LINE
  5
3DF
330
1F
100
AcDbEntity
  8
Sichtbare_Kanten_TC_020513_DIN_
  6
Continuous
 62
     7
100
AcDbLine
 10
229.8376381975286
 20
145.699336128782
 30
0.0
 11
231.1451395499435
 21
145.699336128782
 31
0.0
  0
LINE
  5
3E0
330
1F
100
AcDbEntity
  8
Sichtbare_Kanten_TC_020513_DIN_
  6
Continuous
 62
     7
100
AcDbLine
 10
231.1451395499435
 20
135.699336128782
 30
0.0
 11
228.3451395499426
 21
135.699336128782
 31
0.0
  0
LINE
  5
3E1
330
1F
100
AcDbEntity
  8
Sichtbare_Kanten_TC_020513_DIN_
  6
Continuous
 62
     7
100
AcDbLine
 10
231.1451395499435
 20
145.699336128782
 30
0.0
 11
231.1451395499435
 21
135.699336128782
 31
0.0
  0
LINE
  5
3E2
330
1F
100
AcDbEntity
  8
Sichtbare_Kanten_TC_020513_DIN_
  6
Continuous
 62
     7
100
AcDbLine
 10
57.83289616177578
 20
135.338350793787
 30
0.0
 11
59.23289616177576
 21
135.338350793787
 31
0.0
  0
LINE
  5
3E3
330
1F
100
AcDbEntity
  8
Sichtbare_Kanten_TC_020513_DIN_
  6
Continuous
 62
     7
100
AcDbLine
 10
57.83289616177578
 20
113.604410369181
 30
0.0
 11
59.23289616177576
 21
113.604410369181
 31
0.0
  0
LINE
  5
3E4
330
1F
100
AcDbEntity
  8
Sichtbare_Kanten_TC_020513_DIN_
  6
Continuous
 62
     7
100
AcDbLine
 10
57.83289616177578
 20
129.338350793787
 30
0.0
 11
59.23289616177576
 21
129.338350793787
 31
0.0
  0
LINE
  5
3E5
330
1F
100
AcDbEntity
  8
Sichtbare_Kanten_TC_020513_DIN_
  6
Continuous
 62
     7
100
AcDbLine
 10
57.83289616177578
 20
118.921713491196
 30
0.0
 11
57.83289616177578
 21
113.604410369181
 31
0.0
  0
LINE
  5
3E6
330
1F
100
AcDbEntity
  8
Sichtbare_Kanten_TC_020513_DIN_
  6
Continuous
 62
     7
100
AcDbLine
 10
57.83289616177578
 20
135.338350793787
 30
0.0
 11
57.83289616177578
 21
134.630326507366
 31
0.0
  0
LINE
  5
3E7
330
1F
100
AcDbEntity
  8
Sichtbare_Kanten_TC_020513_DIN_
  6
Continuous
 62
     7
100
AcDbLine
 10
57.83289616177578
 20
134.630326507366
 30
0.0
 11
57.83289616177578
 21
129.516763043695
 31
0.0
  0
LINE
  5
3E8
330
1F
100
AcDbEntity
  8
Sichtbare_Kanten_TC_020513_DIN_
  6
Continuous
 62
     7
100
AcDbLine
 10
57.83289616177578
 20
129.338350793787
 30
0.0
 11
57.83289616177578
 21
129.516763043695
 31
0.0
  0
LINE
  5
3E9
330
1F
100
AcDbEntity
  8
Sichtbare_Kanten_TC_020513_DIN_
  6
Continuous
 62
     7
100
AcDbLine
 10
57.83289616177578
 20
129.338350793787
 30
0.0
 11
57.83289616177578
 21
121.338350793787
 31
0.0
  0
LINE
  5
3EA
330
1F
100
AcDbEntity
  8
Sichtbare_Kanten_TC_020513_DIN_
  6
Continuous
 62
     7
100
AcDbLine
 10
57.83289616177578
 20
118.921713491196
 30
0.0
 11
57.83289616177578
 21
121.338350793787
 31
0.0
  0
LINE
  5
3EB
330
1F
100
AcDbEntity
  8
Sichtbare_Kanten_TC_020513_DIN_
  6
Continuous
 62
     7
100
AcDbLine
 10
59.23289616177576
 20
118.921713491196
 30
0.0
 11
59.23289616177576
 21
121.338350793787
 31
0.0
  0
LINE
  5
3EC
330
1F
100
AcDbEntity
  8
Sichtbare_Kanten_TC_020513_DIN_
  6
Continuous
 62
     7
100
AcDbLine
 10
59.23289616177576
 20
129.338350793787
 30
0.0
 11
59.23289616177576
 21
121.338350793787
 31
0.0
  0
LINE
  5
3ED
330
1F
100
AcDbEntity
  8
Sichtbare_Kanten_TC_020513_DIN_
  6
Continuous
 62
     7
100
AcDbLine
 10
59.23289616177576
 20
129.338350793787
 30
0.0
 11
59.23289616177576
 21
129.516763043695
 31
0.0
  0
LINE
  5
3EE
330
1F
100
AcDbEntity
  8
Sichtbare_Kanten_TC_020513_DIN_
  6
Continuous
 62
     7
100
AcDbLine
 10
59.23289616177576
 20
134.630326507366
 30
0.0
 11
59.23289616177576
 21
129.516763043695
 31
0.0
  0
LINE
  5
3EF
330
1F
100
AcDbEntity
  8
Sichtbare_Kanten_TC_020513_DIN_
  6
Continuous
 62
     7
100
AcDbLine
 10
59.23289616177576
 20
135.338350793787
 30
0.0
 11
59.23289616177576
 21
134.630326507366
 31
0.0
  0
LINE
  5
3F0
330
1F
100
AcDbEntity
  8
Sichtbare_Kanten_TC_020513_DIN_
  6
Continuous
 62
     7
100
AcDbLine
 10
59.23289616177576
 20
116.4968423606
 30
0.0
 11
59.23289616177576
 21
113.604410369181
 31
0.0
  0
LINE
  5
3F1
330
1F
100
AcDbEntity
  8
Sichtbare_Kanten_TC_020513_DIN_
  6
Continuous
 62
     7
100
AcDbLine
 10
65.34107828929845
 20
117.521713491196
 30
0.0
 11
71.67343688875397
 21
117.521713491196
 31
0.0
  0
LINE
  5
3F2
330
1F
100
AcDbEntity
  8
Sichtbare_Kanten_TC_020513_DIN_
  6
Continuous
 62
     7
100
AcDbLine
 10
65.34107828929845
 20
117.521713491196
 30
0.0
 11
64.54953346436648
 21
117.521713491196
 31
0.0
  0
LINE
  5
3F3
330
1F
100
AcDbEntity
  8
Sichtbare_Kanten_TC_020513_DIN_
  6
Continuous
 62
     7
100
AcDbLine
 10
64.54953346436648
 20
117.521713491196
 30
0.0
 11
60.63289616177579
 21
117.521713491196
 31
0.0
  0
LINE
  5
3F4
330
1F
100
AcDbEntity
  8
Sichtbare_Kanten_TC_020513_DIN_
  6
Continuous
 62
     7
100
AcDbLine
 10
70.54953346436648
 20
116.021713491196
 30
0.0
 11
70.54953346436648
 21
115.184058576189
 31
0.0
  0
LINE
  5
3F5
330
1F
100
AcDbEntity
  8
Sichtbare_Kanten_TC_020513_DIN_
  6
Continuous
 62
     7
100
AcDbLine
 10
82.04953346436648
 20
115.684058576189
 30
0.0
 11
82.04953346436648
 21
116.021713491196
 31
0.0
  0
LINE
  5
3F6
330
1F
100
AcDbEntity
  8
Sichtbare_Kanten_TC_020513_DIN_
  6
Continuous
 62
     7
100
AcDbLine
 10
70.54953346436648
 20
115.184058576189
 30
0.0
 11
81.54953346436648
 21
115.184058576189
 31
0.0
  0
LINE
  5
3F7
330
1F
100
AcDbEntity
  8
Sichtbare_Kanten_TC_020513_DIN_
  6
Continuous
 62
     7
100
AcDbLine
 10
111.9923554347976
 20
117.521713491196
 30
0.0
 11
71.67343688875397
 21
117.521713491196
 31
0.0
  0
LINE
  5
3F8
330
1F
100
AcDbEntity
  8
Sichtbare_Kanten_TC_020513_DIN_
  6
Continuous
 62
     7
100
AcDbLine
 10
64.54953346436648
 20
116.121713491196
 30
0.0
 11
60.63289616177579
 21
116.121713491196
 31
0.0
  0
LINE
  5
3F9
330
1F
100
AcDbEntity
  8
Sichtbare_Kanten_TC_020513_DIN_
  6
Continuous
 62
     7
100
AcDbLine
 10
65.34107828929845
 20
116.121713491196
 30
0.0
 11
64.54953346436648
 21
116.121713491196
 31
0.0
  0
LINE
  5
3FA
330
1F
100
AcDbEntity
  8
Sichtbare_Kanten_TC_020513_DIN_
  6
Continuous
 62
     7
100
AcDbLine
 10
65.34107828929845
 20
116.121713491196
 30
0.0
 11
71.67343688875397
 21
116.121713491196
 31
0.0
  0
LINE
  5
3FB
330
1F
100
AcDbEntity
  8
Sichtbare_Kanten_TC_020513_DIN_
  6
Continuous
 62
     7
100
AcDbLine
 10
111.9923554347976
 20
116.121713491196
 30
0.0
 11
71.67343688875397
 21
116.121713491196
 31
0.0
  0
LINE
  5
3FC
330
1F
100
AcDbEntity
  8
Sichtbare_Kanten_TC_020513_DIN_
  6
Continuous
 62
     7
100
AcDbLine
 10
124.4328961617756
 20
135.338350793787
 30
0.0
 11
125.8328961617756
 21
135.338350793787
 31
0.0
  0
LINE
  5
3FD
330
1F
100
AcDbEntity
  8
Sichtbare_Kanten_TC_020513_DIN_
  6
Continuous
 62
     7
100
AcDbLine
 10
124.4328961617756
 20
113.604410369181
 30
0.0
 11
125.8328961617756
 21
113.604410369181
 31
0.0
  0
LINE
  5
3FE
330
1F
100
AcDbEntity
  8
Sichtbare_Kanten_TC_020513_DIN_
  6
Continuous
 62
     7
100
AcDbLine
 10
118.3247140342526
 20
116.121713491196
 30
0.0
 11
111.9923554347976
 21
116.121713491196
 31
0.0
  0
LINE
  5
3FF
330
1F
100
AcDbEntity
  8
Sichtbare_Kanten_TC_020513_DIN_
  6
Continuous
 62
     7
100
AcDbLine
 10
118.3247140342526
 20
117.521713491196
 30
0.0
 11
111.9923554347976
 21
117.521713491196
 31
0.0
  0
LINE
  5
400
330
1F
100
AcDbEntity
  8
Sichtbare_Kanten_TC_020513_DIN_
  6
Continuous
 62
     7
100
AcDbLine
 10
118.3247140342526
 20
116.121713491196
 30
0.0
 11
119.1162588591846
 21
116.121713491196
 31
0.0
  0
LINE
  5
401
330
1F
100
AcDbEntity
  8
Sichtbare_Kanten_TC_020513_DIN_
  6
Continuous
 62
     7
100
AcDbLine
 10
118.3247140342526
 20
117.521713491196
 30
0.0
 11
119.1162588591846
 21
117.521713491196
 31
0.0
  0
LINE
  5
402
330
1F
100
AcDbEntity
  8
Sichtbare_Kanten_TC_020513_DIN_
  6
Continuous
 62
     7
100
AcDbLine
 10
119.1162588591846
 20
116.121713491196
 30
0.0
 11
123.0328961617756
 21
116.121713491196
 31
0.0
  0
LINE
  5
403
330
1F
100
AcDbEntity
  8
Sichtbare_Kanten_TC_020513_DIN_
  6
Continuous
 62
     7
100
AcDbLine
 10
119.1162588591846
 20
117.521713491196
 30
0.0
 11
123.0328961617756
 21
117.521713491196
 31
0.0
  0
LINE
  5
404
330
1F
100
AcDbEntity
  8
Sichtbare_Kanten_TC_020513_DIN_
  6
Continuous
 62
     7
100
AcDbLine
 10
125.8328961617756
 20
129.338350793787
 30
0.0
 11
124.4328961617756
 21
129.338350793787
 31
0.0
  0
LINE
  5
405
330
1F
100
AcDbEntity
  8
Sichtbare_Kanten_TC_020513_DIN_
  6
Continuous
 62
     7
100
AcDbLine
 10
125.8328961617756
 20
118.921713491196
 30
0.0
 11
125.8328961617756
 21
121.338350793787
 31
0.0
  0
LINE
  5
406
330
1F
100
AcDbEntity
  8
Sichtbare_Kanten_TC_020513_DIN_
  6
Continuous
 62
     7
100
AcDbLine
 10
125.8328961617756
 20
129.338350793787
 30
0.0
 11
125.8328961617756
 21
121.338350793787
 31
0.0
  0
LINE
  5
407
330
1F
100
AcDbEntity
  8
Sichtbare_Kanten_TC_020513_DIN_
  6
Continuous
 62
     7
100
AcDbLine
 10
125.8328961617756
 20
129.338350793787
 30
0.0
 11
125.8328961617756
 21
129.516763043695
 31
0.0
  0
LINE
  5
408
330
1F
100
AcDbEntity
  8
Sichtbare_Kanten_TC_020513_DIN_
  6
Continuous
 62
     7
100
AcDbLine
 10
125.8328961617756
 20
134.630326507366
 30
0.0
 11
125.8328961617756
 21
129.516763043695
 31
0.0
  0
LINE
  5
409
330
1F
100
AcDbEntity
  8
Sichtbare_Kanten_TC_020513_DIN_
  6
Continuous
 62
     7
100
AcDbLine
 10
125.8328961617756
 20
135.338350793787
 30
0.0
 11
125.8328961617756
 21
134.630326507366
 31
0.0
  0
LINE
  5
40A
330
1F
100
AcDbEntity
  8
Sichtbare_Kanten_TC_020513_DIN_
  6
Continuous
 62
     7
100
AcDbLine
 10
125.8328961617756
 20
118.921713491196
 30
0.0
 11
125.8328961617756
 21
113.604410369181
 31
0.0
  0
LINE
  5
40B
330
1F
100
AcDbEntity
  8
Sichtbare_Kanten_TC_020513_DIN_
  6
Continuous
 62
     7
100
AcDbLine
 10
124.4328961617756
 20
116.4968423606
 30
0.0
 11
124.4328961617756
 21
113.604410369181
 31
0.0
  0
LINE
  5
40C
330
1F
100
AcDbEntity
  8
Sichtbare_Kanten_TC_020513_DIN_
  6
Continuous
 62
     7
100
AcDbLine
 10
124.4328961617756
 20
135.338350793787
 30
0.0
 11
124.4328961617756
 21
134.630326507366
 31
0.0
  0
LINE
  5
40D
330
1F
100
AcDbEntity
  8
Sichtbare_Kanten_TC_020513_DIN_
  6
Continuous
 62
     7
100
AcDbLine
 10
124.4328961617756
 20
134.630326507366
 30
0.0
 11
124.4328961617756
 21
129.516763043695
 31
0.0
  0
LINE
  5
40E
330
1F
100
AcDbEntity
  8
Sichtbare_Kanten_TC_020513_DIN_
  6
Continuous
 62
     7
100
AcDbLine
 10
124.4328961617756
 20
129.338350793787
 30
0.0
 11
124.4328961617756
 21
129.516763043695
 31
0.0
  0
LINE
  5
40F
330
1F
100
AcDbEntity
  8
Sichtbare_Kanten_TC_020513_DIN_
  6
Continuous
 62
     7
100
AcDbLine
 10
124.4328961617756
 20
129.338350793787
 30
0.0
 11
124.4328961617756
 21
121.338350793787
 31
0.0
  0
LINE
  5
410
330
1F
100
AcDbEntity
  8
Sichtbare_Kanten_TC_020513_DIN_
  6
Continuous
 62
     7
100
AcDbLine
 10
124.4328961617756
 20
118.921713491196
 30
0.0
 11
124.4328961617756
 21
121.338350793787
 31
0.0
  0
LINE
  5
411
330
1F
100
AcDbEntity
  8
Sichtbare_Kanten_TC_020513_DIN_
  6
Continuous
 62
     7
100
AcDbLine
 10
113.1162588591846
 20
116.021713491196
 30
0.0
 11
113.1162588591846
 21
115.184058576189
 31
0.0
  0
LINE
  5
412
330
1F
100
AcDbEntity
  8
Sichtbare_Kanten_TC_020513_DIN_
  6
Continuous
 62
     7
100
AcDbLine
 10
101.6162588591846
 20
115.684058576189
 30
0.0
 11
101.6162588591846
 21
116.021713491196
 31
0.0
  0
LINE
  5
413
330
1F
100
AcDbEntity
  8
Sichtbare_Kanten_TC_020513_DIN_
  6
Continuous
 62
     7
100
AcDbLine
 10
113.1162588591846
 20
115.184058576189
 30
0.0
 11
102.1162588591846
 21
115.184058576189
 31
0.0
  0
LINE
  5
414
330
1F
100
AcDbEntity
  8
Sichtbare_Kanten_TC_020513_DIN_
  6
Continuous
 62
     7
100
AcDbLine
 10
82.04953346436648
 20
116.021713491196
 30
0.0
 11
82.04953346436648
 21
116.101579356982
 31
0.0
  0
LINE
  5
415
330
1F
100
AcDbEntity
  8
Sichtbare_Kanten_TC_020513_DIN_
  6
Continuous
 62
     7
100
AcDbLine
 10
70.54953346436648
 20
116.121713491196
 30
0.0
 11
70.54953346436648
 21
116.021713491196
 31
0.0
  0
LINE
  5
416
330
1F
100
AcDbEntity
  8
Sichtbare_Kanten_TC_020513_DIN_
  6
Continuous
 62
     7
100
AcDbLine
 10
113.1162588591846
 20
116.021713491196
 30
0.0
 11
113.1162588591846
 21
116.121713491196
 31
0.0
  0
LINE
  5
417
330
1F
100
AcDbEntity
  8
Sichtbare_Kanten_TC_020513_DIN_
  6
Continuous
 62
     7
100
AcDbLine
 10
101.6162588591846
 20
116.101579356982
 30
0.0
 11
101.6162588591846
 21
116.021713491196
 31
0.0
  0
LINE
  5
418
330
1F
100
AcDbEntity
  8
Sichtbare_Kanten_TC_020513_DIN_
  6
Continuous
 62
     7
100
AcDbLine
 10
123.8328961617756
 20
125.838350793787
 30
0.0
 11
124.4328961617756
 21
125.838350793787
 31
0.0
  0
LINE
  5
419
330
1F
100
AcDbEntity
  8
Sichtbare_Kanten_TC_020513_DIN_
  6
Continuous
 62
     7
100
AcDbLine
 10
121.1728961617756
 20
125.838350793787
 30
0.0
 11
122.4328961617756
 21
125.838350793787
 31
0.0
  0
LINE
  5
41A
330
1F
100
AcDbEntity
  8
Sichtbare_Kanten_TC_020513_DIN_
  6
Continuous
 62
     7
100
AcDbLine
 10
123.8328961617756
 20
130.838350793787
 30
0.0
 11
124.4328961617756
 21
130.838350793787
 31
0.0
  0
LINE
  5
41B
330
1F
100
AcDbEntity
  8
Sichtbare_Kanten_TC_020513_DIN_
  6
Continuous
 62
     7
100
AcDbLine
 10
121.1728961617756
 20
130.838350793787
 30
0.0
 11
122.4328961617756
 21
130.838350793787
 31
0.0
  0
LINE
  5
41C
330
1F
100
AcDbEntity
  8
Sichtbare_Kanten_TC_020513_DIN_
  6
Continuous
 62
     7
100
AcDbLine
 10
125.8328961617756
 20
125.838350793787
 30
0.0
 11
126.4328961617756
 21
125.838350793787
 31
0.0
  0
LINE
  5
41D
330
1F
100
AcDbEntity
  8
Sichtbare_Kanten_TC_020513_DIN_
  6
Continuous
 62
     7
100
AcDbLine
 10
125.8328961617756
 20
130.838350793787
 30
0.0
 11
126.4328961617756
 21
130.838350793787
 31
0.0
  0
LINE
  5
41E
330
1F
100
AcDbEntity
  8
Sichtbare_Kanten_TC_020513_DIN_
  6
Continuous
 62
     7
100
AcDbLine
 10
121.0828961617756
 20
126.838350793787
 30
0.0
 11
121.1728961617756
 21
126.838350793787
 31
0.0
  0
LINE
  5
41F
330
1F
100
AcDbEntity
  8
Sichtbare_Kanten_TC_020513_DIN_
  6
Continuous
 62
     7
100
AcDbLine
 10
121.0828961617756
 20
129.838350793787
 30
0.0
 11
121.1728961617756
 21
129.838350793787
 31
0.0
  0
LINE
  5
420
330
1F
100
AcDbEntity
  8
Sichtbare_Kanten_TC_020513_DIN_
  6
Continuous
 62
     7
100
AcDbLine
 10
127.8328961617756
 20
124.338350793787
 30
0.0
 11
127.8328961617756
 21
132.338350793787
 31
0.0
  0
LINE
  5
421
330
1F
100
AcDbEntity
  8
Sichtbare_Kanten_TC_020513_DIN_
  6
Continuous
 62
     7
100
AcDbLine
 10
126.4328961617756
 20
124.338350793787
 30
0.0
 11
126.4328961617756
 21
132.338350793787
 31
0.0
  0
LINE
  5
422
330
1F
100
AcDbEntity
  8
Sichtbare_Kanten_TC_020513_DIN_
  6
Continuous
 62
     7
100
AcDbLine
 10
121.1728961617756
 20
125.838350793787
 30
0.0
 11
121.1728961617756
 21
130.838350793787
 31
0.0
  0
LINE
  5
423
330
1F
100
AcDbEntity
  8
Sichtbare_Kanten_TC_020513_DIN_
  6
Continuous
 62
     7
100
AcDbLine
 10
61.23289616177576
 20
125.838350793787
 30
0.0
 11
62.4928961617758
 21
125.838350793787
 31
0.0
  0
LINE
  5
424
330
1F
100
AcDbEntity
  8
Sichtbare_Kanten_TC_020513_DIN_
  6
Continuous
 62
     7
100
AcDbLine
 10
59.23289616177576
 20
125.838350793787
 30
0.0
 11
59.83289616177578
 21
125.838350793787
 31
0.0
  0
LINE
  5
425
330
1F
100
AcDbEntity
  8
Sichtbare_Kanten_TC_020513_DIN_
  6
Continuous
 62
     7
100
AcDbLine
 10
61.23289616177576
 20
130.838350793787
 30
0.0
 11
62.4928961617758
 21
130.838350793787
 31
0.0
  0
LINE
  5
426
330
1F
100
AcDbEntity
  8
Sichtbare_Kanten_TC_020513_DIN_
  6
Continuous
 62
     7
100
AcDbLine
 10
59.23289616177576
 20
130.838350793787
 30
0.0
 11
59.83289616177578
 21
130.838350793787
 31
0.0
  0
LINE
  5
427
330
1F
100
AcDbEntity
  8
Sichtbare_Kanten_TC_020513_DIN_
  6
Continuous
 62
     7
100
AcDbLine
 10
57.23289616177576
 20
125.838350793787
 30
0.0
 11
57.83289616177578
 21
125.838350793787
 31
0.0
  0
LINE
  5
428
330
1F
100
AcDbEntity
  8
Sichtbare_Kanten_TC_020513_DIN_
  6
Continuous
 62
     7
100
AcDbLine
 10
57.23289616177576
 20
130.838350793787
 30
0.0
 11
57.83289616177578
 21
130.838350793787
 31
0.0
  0
LINE
  5
429
330
1F
100
AcDbEntity
  8
Sichtbare_Kanten_TC_020513_DIN_
  6
Continuous
 62
     7
100
AcDbLine
 10
62.4928961617758
 20
126.838350793787
 30
0.0
 11
62.58289616177567
 21
126.838350793787
 31
0.0
  0
LINE
  5
42A
330
1F
100
AcDbEntity
  8
Sichtbare_Kanten_TC_020513_DIN_
  6
Continuous
 62
     7
100
AcDbLine
 10
62.4928961617758
 20
129.838350793787
 30
0.0
 11
62.58289616177567
 21
129.838350793787
 31
0.0
  0
LINE
  5
42B
330
1F
100
AcDbEntity
  8
Sichtbare_Kanten_TC_020513_DIN_
  6
Continuous
 62
     7
100
AcDbLine
 10
55.83289616177578
 20
124.338350793787
 30
0.0
 11
55.83289616177578
 21
132.338350793787
 31
0.0
  0
LINE
  5
42C
330
1F
100
AcDbEntity
  8
Sichtbare_Kanten_TC_020513_DIN_
  6
Continuous
 62
     7
100
AcDbLine
 10
57.23289616177576
 20
124.338350793787
 30
0.0
 11
57.23289616177576
 21
132.338350793787
 31
0.0
  0
LINE
  5
42D
330
1F
100
AcDbEntity
  8
Sichtbare_Kanten_TC_020513_DIN_
  6
Continuous
 62
     7
100
AcDbLine
 10
62.4928961617758
 20
125.838350793787
 30
0.0
 11
62.4928961617758
 21
130.838350793787
 31
0.0
  0
LINE
  5
42E
330
1F
100
AcDbEntity
  8
Sichtbare_Kanten_TC_020513_DIN_
  6
Continuous
 62
     7
100
AcDbLine
 10
120.8828961617756
 20
135.338350793787
 30
0.0
 11
115.0828961617756
 21
135.338350793787
 31
0.0
  0
LINE
  5
42F
330
1F
100
AcDbEntity
  8
Sichtbare_Kanten_TC_020513_DIN_
  6
Continuous
 62
     7
100
AcDbLine
 10
120.8828961617756
 20
135.338350793787
 30
0.0
 11
120.8828961617756
 21
131.338350793787
 31
0.0
  0
LINE
  5
430
330
1F
100
AcDbEntity
  8
Sichtbare_Kanten_TC_020513_DIN_
  6
Continuous
 62
     7
100
AcDbLine
 10
111.2777013831986
 20
135.338350793787
 30
0.0
 11
115.0828961617756
 21
135.338350793787
 31
0.0
  0
LINE
  5
431
330
1F
100
AcDbEntity
  8
Sichtbare_Kanten_TC_020513_DIN_
  6
Continuous
 62
     7
100
AcDbLine
 10
68.58289616177578
 20
135.338350793787
 30
0.0
 11
72.38809094035267
 21
135.338350793787
 31
0.0
  0
LINE
  5
432
330
1F
100
AcDbEntity
  8
Sichtbare_Kanten_TC_020513_DIN_
  6
Continuous
 62
     7
100
AcDbLine
 10
68.58289616177578
 20
135.338350793787
 30
0.0
 11
62.78289616177577
 21
135.338350793787
 31
0.0
  0
LINE
  5
433
330
1F
100
AcDbEntity
  8
Sichtbare_Kanten_TC_020513_DIN_
  6
Continuous
 62
     7
100
AcDbLine
 10
62.78289616177577
 20
135.338350793787
 30
0.0
 11
62.78289616177577
 21
131.338350793787
 31
0.0
  0
LINE
  5
434
330
1F
100
AcDbEntity
  8
Sichtbare_Kanten_TC_020513_DIN_
  6
Continuous
 62
     7
100
AcDbLine
 10
73.42331967477239
 20
131.338350793787
 30
0.0
 11
68.58289616177578
 21
131.338350793787
 31
0.0
  0
LINE
  5
435
330
1F
100
AcDbEntity
  8
Sichtbare_Kanten_TC_020513_DIN_
  6
Continuous
 62
     7
100
AcDbLine
 10
115.0828961617756
 20
131.338350793787
 30
0.0
 11
110.2424726487796
 21
131.338350793787
 31
0.0
  0
LINE
  5
436
330
1F
100
AcDbEntity
  8
Sichtbare_Kanten_TC_020513_DIN_
  6
Continuous
 62
     7
100
AcDbLine
 10
115.0828961617756
 20
131.338350793787
 30
0.0
 11
121.0828961617756
 21
131.338350793787
 31
0.0
  0
LINE
  5
437
330
1F
100
AcDbEntity
  8
Sichtbare_Kanten_TC_020513_DIN_
  6
Continuous
 62
     7
100
AcDbLine
 10
62.58289616177578
 20
131.338350793787
 30
0.0
 11
68.58289616177578
 21
131.338350793787
 31
0.0
  0
LINE
  5
438
330
1F
100
AcDbEntity
  8
Sichtbare_Kanten_TC_020513_DIN_
  6
Continuous
 62
     7
100
AcDbLine
 10
62.58289616177578
 20
117.521713491196
 30
0.0
 11
62.58289616177578
 21
131.338350793787
 31
0.0
  0
LINE
  5
439
330
1F
100
AcDbEntity
  8
Sichtbare_Kanten_TC_020513_DIN_
  6
Continuous
 62
     7
100
AcDbLine
 10
62.58289616177578
 20
86.33835079378687
 30
0.0
 11
62.58289616177578
 21
116.121713491196
 31
0.0
  0
LINE
  5
43A
330
1F
100
AcDbEntity
  8
Sichtbare_Kanten_TC_020513_DIN_
  6
Continuous
 62
     7
100
AcDbLine
 10
121.0828961617756
 20
117.521713491196
 30
0.0
 11
121.0828961617756
 21
131.338350793787
 31
0.0
  0
LINE
  5
43B
330
1F
100
AcDbEntity
  8
Sichtbare_Kanten_TC_020513_DIN_
  6
Continuous
 62
     7
100
AcDbLine
 10
121.0828961617756
 20
86.33835079378687
 30
0.0
 11
121.0828961617756
 21
116.121713491196
 31
0.0
  0
LINE
  5
43C
330
1F
100
AcDbEntity
  8
Sichtbare_Kanten_TC_020513_DIN_
  6
Continuous
 62
     7
100
AcDbLine
 10
132.8328961617756
 20
111.248350793787
 30
0.0
 11
121.0828961617756
 21
111.248350793787
 31
0.0
  0
LINE
  5
43D
330
1F
100
AcDbEntity
  8
Sichtbare_Kanten_TC_020513_DIN_
  6
Continuous
 62
     7
100
AcDbLine
 10
132.8328961617756
 20
98.91835079378697
 30
0.0
 11
132.8328961617756
 21
86.33835079378687
 31
0.0
  0
LINE
  5
43E
330
1F
100
AcDbEntity
  8
Sichtbare_Kanten_TC_020513_DIN_
  6
Continuous
 62
     7
100
AcDbLine
 10
132.8328961617756
 20
98.91835079378697
 30
0.0
 11
132.8328961617756
 21
111.248350793787
 31
0.0
  0
LINE
  5
43F
330
1F
100
AcDbEntity
  8
Sichtbare_Kanten_TC_020513_DIN_
  6
Continuous
 62
     7
100
AcDbLine
 10
50.83289616177578
 20
82.33835079378687
 30
0.0
 11
50.83289616177578
 21
86.33835079378687
 31
0.0
  0
LINE
  5
440
330
1F
100
AcDbEntity
  8
Sichtbare_Kanten_TC_020513_DIN_
  6
Continuous
 62
     7
100
AcDbLine
 10
59.83289616177578
 20
82.33835079378687
 30
0.0
 11
59.83289616177578
 21
86.33835079378687
 31
0.0
  0
LINE
  5
441
330
1F
100
AcDbEntity
  8
Sichtbare_Kanten_TC_020513_DIN_
  6
Continuous
 62
     7
100
AcDbLine
 10
69.83289616177578
 20
82.33835079378687
 30
0.0
 11
69.83289616177578
 21
86.33835079378687
 31
0.0
  0
LINE
  5
442
330
1F
100
AcDbEntity
  8
Sichtbare_Kanten_TC_020513_DIN_
  6
Continuous
 62
     7
100
AcDbLine
 10
113.8328961617756
 20
82.33835079378687
 30
0.0
 11
113.8328961617756
 21
86.33835079378687
 31
0.0
  0
LINE
  5
443
330
1F
100
AcDbEntity
  8
Sichtbare_Kanten_TC_020513_DIN_
  6
Continuous
 62
     7
100
AcDbLine
 10
123.8328961617756
 20
82.33835079378687
 30
0.0
 11
123.8328961617756
 21
86.33835079378687
 31
0.0
  0
LINE
  5
444
330
1F
100
AcDbEntity
  8
Sichtbare_Kanten_TC_020513_DIN_
  6
Continuous
 62
     7
100
AcDbLine
 10
132.8328961617756
 20
86.33835079378687
 30
0.0
 11
123.8328961617756
 21
86.33835079378687
 31
0.0
  0
LINE
  5
445
330
1F
100
AcDbEntity
  8
Sichtbare_Kanten_TC_020513_DIN_
  6
Continuous
 62
     7
100
AcDbLine
 10
123.8328961617756
 20
86.33835079378687
 30
0.0
 11
113.8328961617756
 21
86.33835079378687
 31
0.0
  0
LINE
  5
446
330
1F
100
AcDbEntity
  8
Sichtbare_Kanten_TC_020513_DIN_
  6
Continuous
 62
     7
100
AcDbLine
 10
132.8328961617756
 20
82.33835079378687
 30
0.0
 11
132.8328961617756
 21
86.33835079378687
 31
0.0
  0
LINE
  5
447
330
1F
100
AcDbEntity
  8
Sichtbare_Kanten_TC_020513_DIN_
  6
Continuous
 62
     7
100
AcDbLine
 10
69.83289616177578
 20
86.33835079378687
 30
0.0
 11
59.83289616177578
 21
86.33835079378687
 31
0.0
  0
LINE
  5
448
330
1F
100
AcDbEntity
  8
Sichtbare_Kanten_TC_020513_DIN_
  6
Continuous
 62
     7
100
AcDbLine
 10
59.83289616177578
 20
86.33835079378687
 30
0.0
 11
50.83289616177578
 21
86.33835079378687
 31
0.0
  0
LINE
  5
449
330
1F
100
AcDbEntity
  8
Sichtbare_Kanten_TC_020513_DIN_
  6
Continuous
 62
     7
100
AcDbLine
 10
59.83289616177578
 20
82.33835079378687
 30
0.0
 11
50.83289616177578
 21
82.33835079378687
 31
0.0
  0
LINE
  5
44A
330
1F
100
AcDbEntity
  8
Sichtbare_Kanten_TC_020513_DIN_
  6
Continuous
 62
     7
100
AcDbLine
 10
69.83289616177578
 20
82.33835079378687
 30
0.0
 11
59.83289616177578
 21
82.33835079378687
 31
0.0
  0
LINE
  5
44B
330
1F
100
AcDbEntity
  8
Sichtbare_Kanten_TC_020513_DIN_
  6
Continuous
 62
     7
100
AcDbLine
 10
113.8328961617756
 20
82.33835079378687
 30
0.0
 11
69.83289616177578
 21
82.33835079378687
 31
0.0
  0
LINE
  5
44C
330
1F
100
AcDbEntity
  8
Sichtbare_Kanten_TC_020513_DIN_
  6
Continuous
 62
     7
100
AcDbLine
 10
123.8328961617756
 20
82.33835079378687
 30
0.0
 11
113.8328961617756
 21
82.33835079378687
 31
0.0
  0
LINE
  5
44D
330
1F
100
AcDbEntity
  8
Sichtbare_Kanten_TC_020513_DIN_
  6
Continuous
 62
     7
100
AcDbLine
 10
132.8328961617756
 20
82.33835079378687
 30
0.0
 11
123.8328961617756
 21
82.33835079378687
 31
0.0
  0
LINE
  5
44E
330
1F
100
AcDbEntity
  8
Sichtbare_Kanten_TC_020513_DIN_
  6
Continuous
 62
     7
100
AcDbLine
 10
62.58289616177578
 20
111.248350793787
 30
0.0
 11
50.83289616177578
 21
111.248350793787
 31
0.0
  0
LINE
  5
44F
330
1F
100
AcDbEntity
  8
Sichtbare_Kanten_TC_020513_DIN_
  6
Continuous
 62
     7
100
AcDbLine
 10
50.83289616177578
 20
98.91835079378697
 30
0.0
 11
50.83289616177578
 21
111.248350793787
 31
0.0
  0
LINE
  5
450
330
1F
100
AcDbEntity
  8
Sichtbare_Kanten_TC_020513_DIN_
  6
Continuous
 62
     7
100
AcDbLine
 10
50.83289616177578
 20
98.91835079378697
 30
0.0
 11
50.83289616177578
 21
86.33835079378687
 31
0.0
  0
LINE
  5
451
330
1F
100
AcDbEntity
  8
Sichtbare_Kanten_TC_020513_DIN_
  6
Continuous
 62
     7
100
AcDbLine
 10
123.8328961617756
 20
146.134592377978
 30
0.0
 11
123.8328961617756
 21
135.699336128782
 31
0.0
  0
LINE
  5
452
330
1F
100
AcDbEntity
  8
Sichtbare_Kanten_TC_020513_DIN_
  6
Continuous
 62
     7
100
AcDbLine
 10
123.8328961617756
 20
135.699336128782
 30
0.0
 11
121.0328961617756
 21
135.699336128782
 31
0.0
  0
LINE
  5
453
330
1F
100
AcDbEntity
  8
Sichtbare_Kanten_TC_020513_DIN_
  6
Continuous
 62
     7
100
AcDbLine
 10
121.0328961617756
 20
145.699336128782
 30
0.0
 11
123.4019566901196
 21
145.699336128782
 31
0.0
  0
LINE
  5
454
330
1F
100
AcDbEntity
  8
Sichtbare_Kanten_TC_020513_DIN_
  6
Continuous
 62
     7
100
AcDbLine
 10
122.4328961617756
 20
146.134592377978
 30
0.0
 11
123.0488980745556
 21
146.134592377978
 31
0.0
  0
LINE
  5
455
330
1F
100
AcDbEntity
  8
Sichtbare_Kanten_TC_020513_DIN_
  6
Continuous
 62
     7
100
AcDbLine
 10
123.0488980745556
 20
146.134592377978
 30
0.0
 11
123.8328961617756
 21
146.134592377978
 31
0.0
  0
LINE
  5
456
330
1F
100
AcDbEntity
  8
Sichtbare_Kanten_TC_020513_DIN_
  6
Continuous
 62
     7
100
AcDbLine
 10
110.7206785173016
 20
132.955827967411
 30
0.0
 11
110.7206785173016
 21
133.2871590562939
 31
0.0
  0
LINE
  5
457
330
1F
100
AcDbEntity
  8
Sichtbare_Kanten_TC_020513_DIN_
  6
Continuous
 62
     7
100
AcDbLine
 10
110.7206785173016
 20
133.2871590562939
 30
0.0
 11
110.7206785173016
 21
133.547493533848
 31
0.0
  0
LINE
  5
458
330
1F
100
AcDbEntity
  8
Sichtbare_Kanten_TC_020513_DIN_
  6
Continuous
 62
     7
100
AcDbLine
 10
109.4551092362576
 20
145.515973431373
 30
0.0
 11
109.4551092362576
 21
146.131974561654
 31
0.0
  0
LINE
  5
459
330
1F
100
AcDbEntity
  8
Sichtbare_Kanten_TC_020513_DIN_
  6
Continuous
 62
     7
100
AcDbLine
 10
109.4551092362576
 20
146.131974561654
 30
0.0
 11
109.4551092362576
 21
146.915973431373
 31
0.0
  0
LINE
  5
45A
330
1F
100
AcDbEntity
  8
Sichtbare_Kanten_TC_020513_DIN_
  6
Continuous
 62
     7
100
AcDbLine
 10
74.21068308729357
 20
146.915973431373
 30
0.0
 11
74.21068308729357
 21
146.131974561654
 31
0.0
  0
LINE
  5
45B
330
1F
100
AcDbEntity
  8
Sichtbare_Kanten_TC_020513_DIN_
  6
Continuous
 62
     7
100
AcDbLine
 10
74.21068308729357
 20
146.131974561654
 30
0.0
 11
74.21068308729357
 21
145.515973431373
 31
0.0
  0
LINE
  5
45C
330
1F
100
AcDbEntity
  8
Sichtbare_Kanten_TC_020513_DIN_
  6
Continuous
 62
     7
100
AcDbLine
 10
60.26383563343219
 20
145.699336128782
 30
0.0
 11
62.63289616177579
 21
145.699336128782
 31
0.0
  0
LINE
  5
45D
330
1F
100
AcDbEntity
  8
Sichtbare_Kanten_TC_020513_DIN_
  6
Continuous
 62
     7
100
AcDbLine
 10
62.63289616177579
 20
135.699336128782
 30
0.0
 11
59.83289616177578
 21
135.699336128782
 31
0.0
  0
LINE
  5
45E
330
1F
100
AcDbEntity
  8
Sichtbare_Kanten_TC_020513_DIN_
  6
Continuous
 62
     7
100
AcDbLine
 10
59.83289616177578
 20
146.134592377978
 30
0.0
 11
60.61689424899581
 21
146.134592377978
 31
0.0
  0
LINE
  5
45F
330
1F
100
AcDbEntity
  8
Sichtbare_Kanten_TC_020513_DIN_
  6
Continuous
 62
     7
100
AcDbLine
 10
60.61689424899581
 20
146.134592377978
 30
0.0
 11
61.23289616177576
 21
146.134592377978
 31
0.0
  0
LINE
  5
460
330
1F
100
AcDbEntity
  8
Sichtbare_Kanten_TC_020513_DIN_
  6
Continuous
 62
     7
100
AcDbLine
 10
59.83289616177578
 20
135.699336128782
 30
0.0
 11
59.83289616177578
 21
146.134592377978
 31
0.0
  0
LINE
  5
461
330
1F
100
AcDbEntity
  8
Sichtbare_Kanten_TC_020513_DIN_
  6
Continuous
 62
     7
100
AcDbLine
 10
72.9451138062503
 20
133.547493533848
 30
0.0
 11
72.9451138062503
 21
133.287159056295
 31
0.0
  0
LINE
  5
462
330
1F
100
AcDbEntity
  8
Sichtbare_Kanten_TC_020513_DIN_
  6
Continuous
 62
     7
100
AcDbLine
 10
72.9451138062503
 20
133.287159056295
 30
0.0
 11
72.9451138062503
 21
132.955827967411
 31
0.0
  0
LINE
  5
463
330
1F
100
AcDbEntity
  8
Sichtbare_Kanten_TC_020513_DIN_
  6
Continuous
 62
     7
100
AcDbLine
 10
107.1602812119206
 20
126.103980655108
 30
0.0
 11
76.5055111116304
 21
126.103980655108
 31
0.0
  0
LINE
  5
464
330
1F
100
AcDbEntity
  8
Sichtbare_Kanten_TC_020513_DIN_
  6
Continuous
 62
     7
100
AcDbLine
 10
76.5055111116304
 20
126.695646221545
 30
0.0
 11
107.1602812119216
 21
126.695646221545
 31
0.0
  0
LINE
  5
465
330
1F
100
AcDbEntity
  8
Sichtbare_Kanten_TC_020513_DIN_
  6
Continuous
 62
     7
100
AcDbLine
 10
106.2011224769476
 20
146.915973431373
 30
0.0
 11
77.4646698466041
 21
146.915973431373
 31
0.0
  0
LINE
  5
466
330
1F
100
AcDbEntity
  8
Sichtbare_Kanten_TC_020513_DIN_
  6
Continuous
 62
     7
100
AcDbLine
 10
106.2011224769476
 20
145.515973431373
 30
0.0
 11
77.4646698466041
 21
145.515973431373
 31
0.0
  0
LINE
  5
467
330
1F
100
AcDbEntity
  8
Sichtbare_Kanten_TC_020513_DIN_
  6
Continuous
 62
     7
100
AcDbLine
 10
74.57365945905227
 20
128.039122363599
 30
0.0
 11
72.9451138062503
 21
133.547493533848
 31
0.0
  0
LINE
  5
468
330
1F
100
AcDbEntity
  8
Sichtbare_Kanten_TC_020513_DIN_
  6
Continuous
 62
     7
100
AcDbLine
 10
72.9451138062503
 20
132.955827967411
 30
0.0
 11
74.57365945905227
 21
127.447456797162
 31
0.0
  0
LINE
  5
469
330
1F
100
AcDbEntity
  8
Sichtbare_Kanten_TC_020513_DIN_
  6
Continuous
 62
     7
100
AcDbLine
 10
56.79524124676837
 20
118.100695878779
 30
0.0
 11
56.79524124676831
 21
116.700695878779
 31
0.0
  0
LINE
  5
46A
330
1F
100
AcDbEntity
  8
Sichtbare_Kanten_TC_020513_DIN_
  6
Continuous
 62
     7
100
AcDbLine
 10
56.79524124676837
 20
118.100695878779
 30
0.0
 11
57.29524124676837
 21
118.100695878779
 31
0.0
  0
LINE
  5
46B
330
1F
100
AcDbEntity
  8
Sichtbare_Kanten_TC_020513_DIN_
  6
Continuous
 62
     7
100
AcDbLine
 10
57.29524124676837
 20
116.700695878779
 30
0.0
 11
56.79524124676831
 21
116.700695878779
 31
0.0
  0
LINE
  5
46C
330
1F
100
AcDbEntity
  8
Sichtbare_Kanten_TC_020513_DIN_
  6
Continuous
 62
     7
100
AcDbLine
 10
57.29524124676837
 20
116.700695878779
 30
0.0
 11
57.83289616177578
 21
116.700695878779
 31
0.0
  0
LINE
  5
46D
330
1F
100
AcDbEntity
  8
Sichtbare_Kanten_TC_020513_DIN_
  6
Continuous
 62
     7
100
AcDbLine
 10
57.83289616177578
 20
118.100695878779
 30
0.0
 11
57.29524124676837
 21
118.100695878779
 31
0.0
  0
LINE
  5
46E
330
1F
100
AcDbEntity
  8
Sichtbare_Kanten_TC_020513_DIN_
  6
Continuous
 62
     7
100
AcDbLine
 10
59.73289616177576
 20
118.100695878779
 30
0.0
 11
59.49890759036001
 21
118.100695878779
 31
0.0
  0
LINE
  5
46F
330
1F
100
AcDbEntity
  8
Sichtbare_Kanten_TC_020513_DIN_
  6
Continuous
 62
     7
100
AcDbLine
 10
75.53281819402596
 20
146.915973431373
 30
0.0
 11
74.21068308729357
 21
146.915973431373
 31
0.0
  0
LINE
  5
470
330
1F
100
AcDbEntity
  8
Sichtbare_Kanten_TC_020513_DIN_
  6
Continuous
 62
     7
100
AcDbLine
 10
74.21068308729357
 20
145.515973431373
 30
0.0
 11
75.53281819402596
 21
145.515973431373
 31
0.0
  0
LINE
  5
471
330
1F
100
AcDbEntity
  8
Sichtbare_Kanten_TC_020513_DIN_
  6
Continuous
 62
     7
100
AcDbLine
 10
77.4646698466041
 20
145.515973431373
 30
0.0
 11
75.53281819402596
 21
145.515973431373
 31
0.0
  0
LINE
  5
472
330
1F
100
AcDbEntity
  8
Sichtbare_Kanten_TC_020513_DIN_
  6
Continuous
 62
     7
100
AcDbLine
 10
75.53281819402596
 20
146.915973431373
 30
0.0
 11
77.4646698466041
 21
146.915973431373
 31
0.0
  0
LINE
  5
473
330
1F
100
AcDbEntity
  8
Sichtbare_Kanten_TC_020513_DIN_
  6
Continuous
 62
     7
100
AcDbLine
 10
59.83289616177578
 20
153.338350793787
 30
0.0
 11
61.23289616177576
 21
153.338350793787
 31
0.0
  0
LINE
  5
474
330
1F
100
AcDbEntity
  8
Sichtbare_Kanten_TC_020513_DIN_
  6
Continuous
 62
     7
100
AcDbLine
 10
59.83289616177578
 20
118.338350793787
 30
0.0
 11
61.23289616177576
 21
118.338350793787
 31
0.0
  0
LINE
  5
475
330
1F
100
AcDbEntity
  8
Sichtbare_Kanten_TC_020513_DIN_
  6
Continuous
 62
     7
100
AcDbLine
 10
61.23289616177576
 20
118.200695878779
 30
0.0
 11
61.23289616177576
 21
118.338350793787
 31
0.0
  0
LINE
  5
476
330
1F
100
AcDbEntity
  8
Sichtbare_Kanten_TC_020513_DIN_
  6
Continuous
 62
     7
100
AcDbLine
 10
61.23289616177576
 20
126.553949109058
 30
0.0
 11
61.23289616177576
 21
118.338350793787
 31
0.0
  0
LINE
  5
477
330
1F
100
AcDbEntity
  8
Sichtbare_Kanten_TC_020513_DIN_
  6
Continuous
 62
     7
100
AcDbLine
 10
61.23289616177576
 20
126.553949109058
 30
0.0
 11
61.23289616177576
 21
131.381928665161
 31
0.0
  0
LINE
  5
478
330
1F
100
AcDbEntity
  8
Sichtbare_Kanten_TC_020513_DIN_
  6
Continuous
 62
     7
100
AcDbLine
 10
61.23289616177576
 20
131.381928665161
 30
0.0
 11
61.23289616177576
 21
131.73050055688
 31
0.0
  0
LINE
  5
479
330
1F
100
AcDbEntity
  8
Sichtbare_Kanten_TC_020513_DIN_
  6
Continuous
 62
     7
100
AcDbLine
 10
61.23289616177576
 20
131.73050055688
 30
0.0
 11
61.23289616177576
 21
135.699336128782
 31
0.0
  0
LINE
  5
47A
330
1F
100
AcDbEntity
  8
Sichtbare_Kanten_TC_020513_DIN_
  6
Continuous
 62
     7
100
AcDbLine
 10
61.23289616177576
 20
146.134592377978
 30
0.0
 11
61.23289616177576
 21
148.181812062577
 31
0.0
  0
LINE
  5
47B
330
1F
100
AcDbEntity
  8
Sichtbare_Kanten_TC_020513_DIN_
  6
Continuous
 62
     7
100
AcDbLine
 10
61.23289616177576
 20
153.338350793787
 30
0.0
 11
61.23289616177576
 21
148.181812062577
 31
0.0
  0
LINE
  5
47C
330
1F
100
AcDbEntity
  8
Sichtbare_Kanten_TC_020513_DIN_
  6
Continuous
 62
     7
100
AcDbLine
 10
59.83289616177578
 20
148.181812062577
 30
0.0
 11
59.83289616177578
 21
153.338350793787
 31
0.0
  0
LINE
  5
47D
330
1F
100
AcDbEntity
  8
Sichtbare_Kanten_TC_020513_DIN_
  6
Continuous
 62
     7
100
AcDbLine
 10
59.83289616177578
 20
148.181812062577
 30
0.0
 11
59.83289616177578
 21
146.134592377978
 31
0.0
  0
LINE
  5
47E
330
1F
100
AcDbEntity
  8
Sichtbare_Kanten_TC_020513_DIN_
  6
Continuous
 62
     7
100
AcDbLine
 10
59.83289616177578
 20
135.699336128782
 30
0.0
 11
59.83289616177578
 21
131.73050055688
 31
0.0
  0
LINE
  5
47F
330
1F
100
AcDbEntity
  8
Sichtbare_Kanten_TC_020513_DIN_
  6
Continuous
 62
     7
100
AcDbLine
 10
59.83289616177578
 20
131.73050055688
 30
0.0
 11
59.83289616177578
 21
131.381928665161
 31
0.0
  0
LINE
  5
480
330
1F
100
AcDbEntity
  8
Sichtbare_Kanten_TC_020513_DIN_
  6
Continuous
 62
     7
100
AcDbLine
 10
59.83289616177578
 20
131.381928665161
 30
0.0
 11
59.83289616177578
 21
126.553949109058
 31
0.0
  0
LINE
  5
481
330
1F
100
AcDbEntity
  8
Sichtbare_Kanten_TC_020513_DIN_
  6
Continuous
 62
     7
100
AcDbLine
 10
59.83289616177578
 20
118.338350793787
 30
0.0
 11
59.83289616177578
 21
126.553949109058
 31
0.0
  0
LINE
  5
482
330
1F
100
AcDbEntity
  8
Sichtbare_Kanten_TC_020513_DIN_
  6
Continuous
 62
     7
100
AcDbLine
 10
59.83289616177578
 20
118.338350793787
 30
0.0
 11
59.83289616177578
 21
118.200695878779
 31
0.0
  0
LINE
  5
483
330
1F
100
AcDbEntity
  8
Sichtbare_Kanten_TC_020513_DIN_
  6
Continuous
 62
     7
100
AcDbLine
 10
72.7094133861967
 20
134.139159100285
 30
0.0
 11
72.34101492093882
 21
135.514040890058
 31
0.0
  0
LINE
  5
484
330
1F
100
AcDbEntity
  8
Sichtbare_Kanten_TC_020513_DIN_
  6
Continuous
 62
     7
100
AcDbLine
 10
72.09953346436649
 20
135.699336128782
 30
0.0
 11
62.63289616177579
 21
135.699336128782
 31
0.0
  0
LINE
  5
485
330
1F
100
AcDbEntity
  8
Sichtbare_Kanten_TC_020513_DIN_
  6
Continuous
 62
     7
100
AcDbLine
 10
62.63289616177579
 20
145.699336128782
 30
0.0
 11
64.59953346436649
 21
145.699336128782
 31
0.0
  0
LINE
  5
486
330
1F
100
AcDbEntity
  8
Sichtbare_Kanten_TC_020513_DIN_
  6
Continuous
 62
     7
100
AcDbLine
 10
65.36557790748552
 20
145.342123738468
 30
0.0
 11
66.4443035999121
 21
144.056548519095
 31
0.0
  0
LINE
  5
487
330
1F
100
AcDbEntity
  8
Sichtbare_Kanten_TC_020513_DIN_
  6
Continuous
 62
     7
100
AcDbLine
 10
67.21034804303108
 20
143.699336128782
 30
0.0
 11
72.09953346436649
 21
143.699336128782
 31
0.0
  0
LINE
  5
488
330
1F
100
AcDbEntity
  8
Sichtbare_Kanten_TC_020513_DIN_
  6
Continuous
 62
     7
100
AcDbLine
 10
110.7206785173016
 20
132.955827967411
 30
0.0
 11
109.0921328644996
 21
127.447456797162
 31
0.0
  0
LINE
  5
489
330
1F
100
AcDbEntity
  8
Sichtbare_Kanten_TC_020513_DIN_
  6
Continuous
 62
     7
100
AcDbLine
 10
126.8705510767836
 20
118.100695878779
 30
0.0
 11
126.8705510767836
 21
116.700695878779
 31
0.0
  0
LINE
  5
48A
330
1F
100
AcDbEntity
  8
Sichtbare_Kanten_TC_020513_DIN_
  6
Continuous
 62
     7
100
AcDbLine
 10
126.3705510767826
 20
116.700695878779
 30
0.0
 11
126.8705510767836
 21
116.700695878779
 31
0.0
  0
LINE
  5
48B
330
1F
100
AcDbEntity
  8
Sichtbare_Kanten_TC_020513_DIN_
  6
Continuous
 62
     7
100
AcDbLine
 10
126.3705510767826
 20
116.700695878779
 30
0.0
 11
125.8328961617756
 21
116.700695878779
 31
0.0
  0
LINE
  5
48C
330
1F
100
AcDbEntity
  8
Sichtbare_Kanten_TC_020513_DIN_
  6
Continuous
 62
     7
100
AcDbLine
 10
126.8705510767836
 20
118.100695878779
 30
0.0
 11
126.3705510767826
 21
118.100695878779
 31
0.0
  0
LINE
  5
48D
330
1F
100
AcDbEntity
  8
Sichtbare_Kanten_TC_020513_DIN_
  6
Continuous
 62
     7
100
AcDbLine
 10
125.8328961617756
 20
118.100695878779
 30
0.0
 11
126.3705510767826
 21
118.100695878779
 31
0.0
  0
LINE
  5
48E
330
1F
100
AcDbEntity
  8
Sichtbare_Kanten_TC_020513_DIN_
  6
Continuous
 62
     7
100
AcDbLine
 10
123.9328961617756
 20
118.100695878779
 30
0.0
 11
124.1668847331916
 21
118.100695878779
 31
0.0
  0
LINE
  5
48F
330
1F
100
AcDbEntity
  8
Sichtbare_Kanten_TC_020513_DIN_
  6
Continuous
 62
     7
100
AcDbLine
 10
123.8328961617756
 20
153.338350793787
 30
0.0
 11
122.4328961617756
 21
153.338350793787
 31
0.0
  0
LINE
  5
490
330
1F
100
AcDbEntity
  8
Sichtbare_Kanten_TC_020513_DIN_
  6
Continuous
 62
     7
100
AcDbLine
 10
123.8328961617756
 20
118.338350793787
 30
0.0
 11
122.4328961617756
 21
118.338350793787
 31
0.0
  0
LINE
  5
491
330
1F
100
AcDbEntity
  8
Sichtbare_Kanten_TC_020513_DIN_
  6
Continuous
 62
     7
100
AcDbLine
 10
122.4328961617756
 20
131.73050055688
 30
0.0
 11
122.4328961617756
 21
135.699336128782
 31
0.0
  0
LINE
  5
492
330
1F
100
AcDbEntity
  8
Sichtbare_Kanten_TC_020513_DIN_
  6
Continuous
 62
     7
100
AcDbLine
 10
122.4328961617756
 20
131.381928665161
 30
0.0
 11
122.4328961617756
 21
131.73050055688
 31
0.0
  0
LINE
  5
493
330
1F
100
AcDbEntity
  8
Sichtbare_Kanten_TC_020513_DIN_
  6
Continuous
 62
     7
100
AcDbLine
 10
122.4328961617756
 20
126.553949109058
 30
0.0
 11
122.4328961617756
 21
131.381928665161
 31
0.0
  0
LINE
  5
494
330
1F
100
AcDbEntity
  8
Sichtbare_Kanten_TC_020513_DIN_
  6
Continuous
 62
     7
100
AcDbLine
 10
122.4328961617756
 20
126.553949109058
 30
0.0
 11
122.4328961617756
 21
118.338350793787
 31
0.0
  0
LINE
  5
495
330
1F
100
AcDbEntity
  8
Sichtbare_Kanten_TC_020513_DIN_
  6
Continuous
 62
     7
100
AcDbLine
 10
122.4328961617756
 20
118.200695878779
 30
0.0
 11
122.4328961617756
 21
118.338350793787
 31
0.0
  0
LINE
  5
496
330
1F
100
AcDbEntity
  8
Sichtbare_Kanten_TC_020513_DIN_
  6
Continuous
 62
     7
100
AcDbLine
 10
122.4328961617756
 20
153.338350793787
 30
0.0
 11
122.4328961617756
 21
148.181812062577
 31
0.0
  0
LINE
  5
497
330
1F
100
AcDbEntity
  8
Sichtbare_Kanten_TC_020513_DIN_
  6
Continuous
 62
     7
100
AcDbLine
 10
123.8328961617756
 20
148.181812062577
 30
0.0
 11
123.8328961617756
 21
153.338350793787
 31
0.0
  0
LINE
  5
498
330
1F
100
AcDbEntity
  8
Sichtbare_Kanten_TC_020513_DIN_
  6
Continuous
 62
     7
100
AcDbLine
 10
123.8328961617756
 20
118.338350793787
 30
0.0
 11
123.8328961617756
 21
118.200695878779
 31
0.0
  0
LINE
  5
499
330
1F
100
AcDbEntity
  8
Sichtbare_Kanten_TC_020513_DIN_
  6
Continuous
 62
     7
100
AcDbLine
 10
123.8328961617756
 20
118.338350793787
 30
0.0
 11
123.8328961617756
 21
126.553949109058
 31
0.0
  0
LINE
  5
49A
330
1F
100
AcDbEntity
  8
Sichtbare_Kanten_TC_020513_DIN_
  6
Continuous
 62
     7
100
AcDbLine
 10
123.8328961617756
 20
131.381928665161
 30
0.0
 11
123.8328961617756
 21
126.553949109058
 31
0.0
  0
LINE
  5
49B
330
1F
100
AcDbEntity
  8
Sichtbare_Kanten_TC_020513_DIN_
  6
Continuous
 62
     7
100
AcDbLine
 10
123.8328961617756
 20
131.73050055688
 30
0.0
 11
123.8328961617756
 21
131.381928665161
 31
0.0
  0
LINE
  5
49C
330
1F
100
AcDbEntity
  8
Sichtbare_Kanten_TC_020513_DIN_
  6
Continuous
 62
     7
100
AcDbLine
 10
123.8328961617756
 20
135.699336128782
 30
0.0
 11
123.8328961617756
 21
131.73050055688
 31
0.0
  0
LINE
  5
49D
330
1F
100
AcDbEntity
  8
Sichtbare_Kanten_TC_020513_DIN_
  6
Continuous
 62
     7
100
AcDbLine
 10
122.4328961617756
 20
146.134592377978
 30
0.0
 11
122.4328961617756
 21
148.181812062577
 31
0.0
  0
LINE
  5
49E
330
1F
100
AcDbEntity
  8
Sichtbare_Kanten_TC_020513_DIN_
  6
Continuous
 62
     7
100
AcDbLine
 10
123.8328961617756
 20
148.181812062577
 30
0.0
 11
123.8328961617756
 21
146.134592377978
 31
0.0
  0
LINE
  5
49F
330
1F
100
AcDbEntity
  8
Sichtbare_Kanten_TC_020513_DIN_
  6
Continuous
 62
     7
100
AcDbLine
 10
108.1329741295256
 20
146.915973431373
 30
0.0
 11
109.4551092362576
 21
146.915973431373
 31
0.0
  0
LINE
  5
4A0
330
1F
100
AcDbEntity
  8
Sichtbare_Kanten_TC_020513_DIN_
  6
Continuous
 62
     7
100
AcDbLine
 10
108.1329741295256
 20
146.915973431373
 30
0.0
 11
106.2011224769476
 21
146.915973431373
 31
0.0
  0
LINE
  5
4A1
330
1F
100
AcDbEntity
  8
Sichtbare_Kanten_TC_020513_DIN_
  6
Continuous
 62
     7
100
AcDbLine
 10
109.0921328644996
 20
128.039122363599
 30
0.0
 11
110.7206785173016
 21
133.547493533848
 31
0.0
  0
LINE
  5
4A2
330
1F
100
AcDbEntity
  8
Sichtbare_Kanten_TC_020513_DIN_
  6
Continuous
 62
     7
100
AcDbLine
 10
106.2011224769476
 20
145.515973431373
 30
0.0
 11
108.1329741295256
 21
145.515973431373
 31
0.0
  0
LINE
  5
4A3
330
1F
100
AcDbEntity
  8
Sichtbare_Kanten_TC_020513_DIN_
  6
Continuous
 62
     7
100
AcDbLine
 10
109.4551092362576
 20
145.515973431373
 30
0.0
 11
108.1329741295256
 21
145.515973431373
 31
0.0
  0
LINE
  5
4A4
330
1F
100
AcDbEntity
  8
Sichtbare_Kanten_TC_020513_DIN_
  6
Continuous
 62
     7
100
AcDbLine
 10
116.4554442805206
 20
143.699336128782
 30
0.0
 11
111.5662588591846
 21
143.699336128782
 31
0.0
  0
LINE
  5
4A5
330
1F
100
AcDbEntity
  8
Sichtbare_Kanten_TC_020513_DIN_
  6
Continuous
 62
     7
100
AcDbLine
 10
118.3002144160656
 20
145.342123738469
 30
0.0
 11
117.2214887236396
 21
144.056548519095
 31
0.0
  0
LINE
  5
4A6
330
1F
100
AcDbEntity
  8
Sichtbare_Kanten_TC_020513_DIN_
  6
Continuous
 62
     7
100
AcDbLine
 10
121.0328961617756
 20
145.699336128782
 30
0.0
 11
119.0662588591846
 21
145.699336128782
 31
0.0
  0
LINE
  5
4A7
330
1F
100
AcDbEntity
  8
Sichtbare_Kanten_TC_020513_DIN_
  6
Continuous
 62
     7
100
AcDbLine
 10
111.5662588591846
 20
135.699336128782
 30
0.0
 11
121.0328961617756
 21
135.699336128782
 31
0.0
  0
LINE
  5
4A8
330
1F
100
AcDbEntity
  8
Sichtbare_Kanten_TC_020513_DIN_
  6
Continuous
 62
     7
100
AcDbLine
 10
110.9563789373546
 20
134.139159100285
 30
0.0
 11
111.3247774026126
 21
135.514040890058
 31
0.0
  0
LINE
  5
4A9
330
1F
100
AcDbEntity
  8
Sichtbare_Kanten_TC_020513_DIN_
  6
Continuous
 62
     7
100
AcDbLine
 10
91.83289616177578
 20
139.338350793787
 30
0.0
 11
91.08289616177578
 21
140.374070669578
 31
0.0
  0
LINE
  5
4AA
330
1F
100
AcDbEntity
  8
Sichtbare_Kanten_TC_020513_DIN_
  6
Continuous
 62
     7
100
AcDbLine
 10
91.08289616177578
 20
140.374070669578
 30
0.0
 11
91.08289616177578
 21
137.713831429545
 31
0.0
  0
LINE
  5
4AB
330
1F
100
AcDbEntity
  8
Sichtbare_Kanten_TC_020513_DIN_
  6
Continuous
 62
     7
100
AcDbLine
 10
90.58289616177578
 20
137.713831429545
 30
0.0
 11
90.58289616177578
 21
141.145562465721
 31
0.0
  0
LINE
  5
4AC
330
1F
100
AcDbEntity
  8
Sichtbare_Kanten_TC_020513_DIN_
  6
Continuous
 62
     7
100
AcDbLine
 10
92.58289616177578
 20
140.374070669578
 30
0.0
 11
91.83289616177578
 21
139.338350793787
 31
0.0
  0
LINE
  5
4AD
330
1F
100
AcDbEntity
  8
Sichtbare_Kanten_TC_020513_DIN_
  6
Continuous
 62
     7
100
AcDbLine
 10
92.58289616177578
 20
136.531139121852
 30
0.0
 11
92.58289616177578
 21
140.374070669578
 31
0.0
  0
LINE
  5
4AE
330
1F
100
AcDbEntity
  8
Sichtbare_Kanten_TC_020513_DIN_
  6
Continuous
 62
     7
100
AcDbLine
 10
93.08289616177578
 20
141.145562465721
 30
0.0
 11
93.08289616177578
 21
136.531139121852
 31
0.0
  0
LINE
  5
4AF
330
1F
100
AcDbEntity
  8
Sichtbare_Kanten_TC_020513_DIN_
  6
Continuous
 62
     7
100
AcDbLine
 10
91.83289616177578
 20
140.19085446888
 30
0.0
 11
92.63041025544871
 21
141.2921893996009
 31
0.0
  0
LINE
  5
4B0
330
1F
100
AcDbEntity
  8
Sichtbare_Kanten_TC_020513_DIN_
  6
Continuous
 62
     7
100
AcDbLine
 10
91.03538206810279
 20
141.2921893996009
 30
0.0
 11
91.83289616177578
 21
140.19085446888
 31
0.0
  0
LINE
  5
4B1
330
1F
100
AcDbEntity
  8
Sichtbare_Kanten_TC_020513_DIN_
  6
Continuous
 62
     7
100
AcDbLine
 10
90.03289616177577
 20
140.539793234952
 30
0.0
 11
90.03289616177577
 21
137.281299333772
 31
0.0
  0
LINE
  5
4B2
330
1F
100
AcDbEntity
  8
Sichtbare_Kanten_TC_020513_DIN_
  6
Continuous
 62
     7
100
AcDbLine
 10
90.03289616177577
 20
137.281299333772
 30
0.0
 11
91.95782677514816
 21
136.170762441442
 31
0.0
  0
LINE
  5
4B3
330
1F
100
AcDbEntity
  8
Sichtbare_Kanten_TC_020513_DIN_
  6
Continuous
 62
     7
100
AcDbLine
 10
89.53289616177577
 20
137.136908352622
 30
0.0
 11
89.53289616177577
 21
140.539793234952
 31
0.0
  0
LINE
  5
4B4
330
1F
100
AcDbEntity
  8
Sichtbare_Kanten_TC_020513_DIN_
  6
Continuous
 62
     7
100
AcDbLine
 10
91.7079655484034
 20
135.737669648417
 30
0.0
 11
89.65796554840338
 21
136.92036195611
 31
0.0
  0
LINE
  5
4B5
330
1F
100
AcDbEntity
  8
Sichtbare_Kanten_TC_020513_DIN_
  6
Continuous
 62
     7
100
AcDbLine
 10
85.33289616177578
 20
138.838350793787
 30
0.0
 11
91.83289616177578
 21
142.588350793787
 31
0.0
  0
LINE
  5
4B6
330
1F
100
AcDbEntity
  8
Sichtbare_Kanten_TC_020513_DIN_
  6
Continuous
 62
     7
100
AcDbLine
 10
91.83289616177578
 20
135.088350793787
 30
0.0
 11
85.33289616177578
 21
138.838350793787
 31
0.0
  0
LINE
  5
4B7
330
1F
100
AcDbEntity
  8
Sichtbare_Kanten_TC_020513_DIN_
  6
Continuous
 62
     7
100
AcDbLine
 10
91.83289616177578
 20
135.376972544168
 30
0.0
 11
97.83261846111557
 21
138.838350793787
 31
0.0
  0
LINE
  5
4B8
330
1F
100
AcDbEntity
  8
Sichtbare_Kanten_TC_020513_DIN_
  6
Continuous
 62
     7
100
AcDbLine
 10
85.83317386243587
 20
138.838350793787
 30
0.0
 11
91.83289616177578
 21
135.376972544168
 31
0.0
  0
LINE
  5
4B9
330
1F
100
AcDbEntity
  8
Sichtbare_Kanten_TC_020513_DIN_
  6
Continuous
 62
     7
100
AcDbLine
 10
98.33289616177555
 20
138.838350793787
 30
0.0
 11
91.83289616177578
 21
135.088350793787
 31
0.0
  0
LINE
  5
4BA
330
1F
100
AcDbEntity
  8
Sichtbare_Kanten_TC_020513_DIN_
  6
Continuous
 62
     7
100
AcDbLine
 10
91.83289616177578
 20
142.588350793787
 30
0.0
 11
98.33289616177555
 21
138.838350793787
 31
0.0
  0
LINE
  5
4BB
330
1F
100
AcDbEntity
  8
Sichtbare_Kanten_TC_020513_DIN_
  6
Continuous
 62
     7
100
AcDbLine
 10
91.83289616177578
 20
142.299729043406
 30
0.0
 11
85.83317386243587
 21
138.838350793787
 31
0.0
  0
LINE
  5
4BC
330
1F
100
AcDbEntity
  8
Sichtbare_Kanten_TC_020513_DIN_
  6
Continuous
 62
     7
100
AcDbLine
 10
97.83261846111557
 20
138.838350793787
 30
0.0
 11
91.83289616177578
 21
142.299729043406
 31
0.0
  0
LINE
  5
4BD
330
1F
100
AcDbEntity
  8
Sichtbare_Kanten_TC_020513_DIN_
  6
Continuous
 62
     7
100
AcDbLine
 10
89.03289616177577
 20
139.962870158029
 30
0.0
 11
89.03289616177577
 21
137.713831429545
 31
0.0
  0
LINE
  5
4BE
330
1F
100
AcDbEntity
  8
Sichtbare_Kanten_TC_020513_DIN_
  6
Continuous
 62
     7
100
AcDbLine
 10
88.53289616177577
 20
137.713831429545
 30
0.0
 11
88.53289616177577
 21
139.962870158029
 31
0.0
  0
LINE
  5
4BF
330
1F
100
AcDbEntity
  8
Sichtbare_Kanten_TC_020513_DIN_
  6
Continuous
 62
     7
100
AcDbLine
 10
93.95782677514816
 20
140.78518578531
 30
0.0
 11
94.95782677514805
 21
140.208262708387
 31
0.0
  0
LINE
  5
4C0
330
1F
100
AcDbEntity
  8
Sichtbare_Kanten_TC_020513_DIN_
  6
Continuous
 62
     7
100
AcDbLine
 10
94.7079655484034
 20
139.775169915363
 30
0.0
 11
94.08289616177578
 21
140.135786869187
 31
0.0
  0
LINE
  5
4C1
330
1F
100
AcDbEntity
  8
Sichtbare_Kanten_TC_020513_DIN_
  6
Continuous
 62
     7
100
AcDbLine
 10
94.08289616177578
 20
140.135786869187
 30
0.0
 11
94.08289616177578
 21
139.088350793787
 31
0.0
  0
LINE
  5
4C2
330
1F
100
AcDbEntity
  8
Sichtbare_Kanten_TC_020513_DIN_
  6
Continuous
 62
     7
100
AcDbLine
 10
94.08289616177578
 20
139.088350793787
 30
0.0
 11
94.83289616177578
 21
139.088350793787
 31
0.0
  0
LINE
  5
4C3
330
1F
100
AcDbEntity
  8
Sichtbare_Kanten_TC_020513_DIN_
  6
Continuous
 62
     7
100
AcDbLine
 10
93.58289616177578
 20
137.108062198776
 30
0.0
 11
93.58289616177578
 21
140.568639388798
 31
0.0
  0
LINE
  5
4C4
330
1F
100
AcDbEntity
  8
Sichtbare_Kanten_TC_020513_DIN_
  6
Continuous
 62
     7
100
AcDbLine
 10
94.95782677514816
 20
137.468438879187
 30
0.0
 11
93.95782677514816
 21
136.891515802263
 31
0.0
  0
LINE
  5
4C5
330
1F
100
AcDbEntity
  8
Sichtbare_Kanten_TC_020513_DIN_
  6
Continuous
 62
     7
100
AcDbLine
 10
94.08289616177578
 20
137.5409147183869
 30
0.0
 11
94.7079655484034
 21
137.901531672211
 31
0.0
  0
LINE
  5
4C6
330
1F
100
AcDbEntity
  8
Sichtbare_Kanten_TC_020513_DIN_
  6
Continuous
 62
     7
100
AcDbLine
 10
94.08289616177578
 20
138.588350793787
 30
0.0
 11
94.08289616177578
 21
137.5409147183869
 31
0.0
  0
LINE
  5
4C7
330
1F
100
AcDbEntity
  8
Sichtbare_Kanten_TC_020513_DIN_
  6
Continuous
 62
     7
100
AcDbLine
 10
94.83289616177578
 20
138.588350793787
 30
0.0
 11
94.08289616177578
 21
138.588350793787
 31
0.0
  0
ARC
  5
4C8
330
1F
100
AcDbEntity
  8
Stich_1-Linien_TC_020513_DIN_
  6
DASHED_SPACE
 62
     7
100
AcDbCircle
 10
199.9785022473515
 20
117.338350793787
 30
0.0
 40
48.9339499717201
100
AcDbArc
 50
0.0
 51
49.30653038405225
  0
ARC
  5
4C9
330
1F
100
AcDbEntity
  8
Sichtbare_Kanten_TC_020513_DIN_
  6
Continuous
 62
     7
100
AcDbCircle
 10
226.7408473323476
 20
116.021713491196
 30
0.0
 40
1.5
100
AcDbArc
 50
90.0
 51
180.0
  0
ARC
  5
4CA
330
1F
100
AcDbEntity
  8
Sichtbare_Kanten_TC_020513_DIN_
  6
Continuous
 62
     7
100
AcDbCircle
 10
226.7408473323476
 20
116.021713491196
 30
0.0
 40
0.1000000000000085
100
AcDbArc
 50
90.0
 51
180.0
  0
ARC
  5
4CB
330
1F
100
AcDbEntity
  8
Sichtbare_Kanten_TC_020513_DIN_
  6
Continuous
 62
     7
100
AcDbCircle
 10
225.7785022473506
 20
121.338350793787
 30
0.0
 40
1.0
100
AcDbArc
 50
0.0
 51
90.0
  0
ARC
  5
4CC
330
1F
100
AcDbEntity
  8
Sichtbare_Kanten_TC_020513_DIN_
  6
Continuous
 62
     7
100
AcDbCircle
 10
214.9785022473515
 20
121.838350793787
 30
0.0
 40
0.5
100
AcDbArc
 50
90.0
 51
154.1179484036026
  0
ARC
  5
4CD
330
1F
100
AcDbEntity
  8
Sichtbare_Kanten_TC_020513_DIN_
  6
Continuous
 62
     7
100
AcDbCircle
 10
201.0332364620666
 20
128.604410369181
 30
0.0
 40
14.99999999999959
100
AcDbArc
 50
251.6923269007133
 51
334.1179484035667
  0
ARC
  5
4CE
330
1F
100
AcDbEntity
  8
Sichtbare_Kanten_TC_020513_DIN_
  6
Continuous
 62
     7
100
AcDbCircle
 10
196.4785022473515
 20
114.838350793787
 30
0.0
 40
0.5
100
AcDbArc
 50
180.0
 51
251.6923269006495
  0
ARC
  5
4CF
330
1F
100
AcDbEntity
  8
Sichtbare_Kanten_TC_020513_DIN_
  6
Continuous
 62
     7
100
AcDbCircle
 10
202.9785022473505
 20
128.338350793787
 30
0.0
 40
7.000000000000223
100
AcDbArc
 50
64.00779443620512
 51
180.0
  0
ARC
  5
4D0
330
1F
100
AcDbEntity
  8
Sichtbare_Kanten_TC_020513_DIN_
  6
Continuous
 62
     7
100
AcDbCircle
 10
197.2812669104196
 20
116.653253039997
 30
0.0
 40
20.00000000000006
100
AcDbArc
 50
40.0290181764522
 51
64.00779443620975
  0
ARC
  5
4D1
330
1F
100
AcDbEntity
  8
Sichtbare_Kanten_TC_020513_DIN_
  6
Continuous
 62
     7
100
AcDbCircle
 10
212.9785022473515
 20
129.838350793787
 30
0.0
 40
0.5000000000004804
100
AcDbArc
 50
220.0290181764903
 51
270.0
  0
ARC
  5
4D2
330
1F
100
AcDbEntity
  8
Sichtbare_Kanten_TC_020513_DIN_
  6
Continuous
 62
     7
100
AcDbCircle
 10
225.7785022473506
 20
121.338350793787
 30
0.0
 40
8.0
100
AcDbArc
 50
0.0
 51
90.0
  0
ARC
  5
4D3
330
1F
100
AcDbEntity
  8
Sichtbare_Kanten_TC_020513_DIN_
  6
Continuous
 62
     7
100
AcDbCircle
 10
202.9785022473526
 20
98.91835079378697
 30
0.0
 40
12.32999999999601
100
AcDbArc
 50
0.0
 51
180.0
  0
ARC
  5
4D4
330
1F
100
AcDbEntity
  8
Sichtbare_Kanten_TC_020513_DIN_
  6
Continuous
 62
     7
100
AcDbCircle
 10
207.7964645422236
 20
139.838350793787
 30
0.0
 40
0.4999999999998601
100
AcDbArc
 50
325.2685345843126
 51
20.26853458421803
  0
ARC
  5
4D5
330
1F
100
AcDbEntity
  8
Sichtbare_Kanten_TC_020513_DIN_
  6
Continuous
 62
     7
100
AcDbCircle
 10
202.9785022473515
 20
141.338350793787
 30
0.0
 40
4.499999999999974
100
AcDbArc
 50
20.2685345842671
 51
118.9550243718626
  0
ARC
  5
4D6
330
1F
100
AcDbEntity
  8
Sichtbare_Kanten_TC_020513_DIN_
  6
Continuous
 62
     7
100
AcDbCircle
 10
198.7182205665236
 20
149.038350793787
 30
0.0
 40
4.299999999999983
100
AcDbArc
 50
90.0
 51
298.9550243718541
  0
ARC
  5
4D7
330
1F
100
AcDbEntity
  8
Sichtbare_Kanten_TC_020513_DIN_
  6
Continuous
 62
     7
100
AcDbCircle
 10
206.7182205665236
 20
118.338350793787
 30
0.0
 40
34.99999999999982
100
AcDbArc
 50
58.50330715785395
 51
90.0
  0
ARC
  5
4D8
330
1F
100
AcDbEntity
  8
Sichtbare_Kanten_TC_020513_DIN_
  6
Continuous
 62
     7
100
AcDbCircle
 10
226.9785022473515
 20
136.699336128782
 30
0.0
 40
1.000000000000047
100
AcDbArc
 50
218.3440606646161
 51
270.0
  0
ARC
  5
4D9
330
1F
100
AcDbEntity
  8
Sichtbare_Kanten_TC_020513_DIN_
  6
Continuous
 62
     7
100
AcDbCircle
 10
222.9785022473515
 20
139.338350793787
 30
0.0
 40
0.50000000000043
100
AcDbArc
 50
38.34406066465406
 51
128.3440606645585
  0
ARC
  5
4DA
330
1F
100
AcDbEntity
  8
Sichtbare_Kanten_TC_020513_DIN_
  6
Continuous
 62
     7
100
AcDbCircle
 10
212.8647453581176
 20
131.338350793787
 30
0.0
 40
0.5000000000003855
100
AcDbArc
 50
128.3440606646581
 51
174.9999999999787
  0
ARC
  5
4DB
330
1F
100
AcDbEntity
  8
Sichtbare_Kanten_TC_020513_DIN_
  6
Continuous
 62
     7
100
AcDbCircle
 10
60.63289616177579
 20
118.921713491196
 30
0.0
 40
1.400000000000027
100
AcDbArc
 50
180.0
 51
270.0
  0
ARC
  5
4DC
330
1F
100
AcDbEntity
  8
Sichtbare_Kanten_TC_020513_DIN_
  6
Continuous
 62
     7
100
AcDbCircle
 10
60.63289616177579
 20
118.921713491196
 30
0.0
 40
2.800000000000011
100
AcDbArc
 50
180.0
 51
270.0
  0
ARC
  5
4DD
330
1F
100
AcDbEntity
  8
Sichtbare_Kanten_TC_020513_DIN_
  6
Continuous
 62
     7
100
AcDbCircle
 10
81.54953346436648
 20
115.684058576189
 30
0.0
 40
0.5
100
AcDbArc
 50
270.0
 51
0.0
  0
ARC
  5
4DE
330
1F
100
AcDbEntity
  8
Sichtbare_Kanten_TC_020513_DIN_
  6
Continuous
 62
     7
100
AcDbCircle
 10
123.0328961617756
 20
118.921713491196
 30
0.0
 40
1.400000000000006
100
AcDbArc
 50
270.0
 51
0.0
  0
ARC
  5
4DF
330
1F
100
AcDbEntity
  8
Sichtbare_Kanten_TC_020513_DIN_
  6
Continuous
 62
     7
100
AcDbCircle
 10
123.0328961617756
 20
118.921713491196
 30
0.0
 40
2.799999999999997
100
AcDbArc
 50
270.0
 51
0.0
  0
ARC
  5
4E0
330
1F
100
AcDbEntity
  8
Sichtbare_Kanten_TC_020513_DIN_
  6
Continuous
 62
     7
100
AcDbCircle
 10
102.1162588591846
 20
115.684058576189
 30
0.0
 40
0.5
100
AcDbArc
 50
180.0
 51
270.0
  0
ARC
  5
4E1
330
1F
100
AcDbEntity
  8
Sichtbare_Kanten_TC_020513_DIN_
  6
Continuous
 62
     7
100
AcDbCircle
 10
127.1328961617756
 20
132.338350793787
 30
0.0
 40
0.6999999999999886
100
AcDbArc
 50
0.0
 51
180.0
  0
ARC
  5
4E2
330
1F
100
AcDbEntity
  8
Sichtbare_Kanten_TC_020513_DIN_
  6
Continuous
 62
     7
100
AcDbCircle
 10
127.1328961617756
 20
124.338350793787
 30
0.0
 40
0.7000000000000028
100
AcDbArc
 50
180.0
 51
0.0
  0
ARC
  5
4E3
330
1F
100
AcDbEntity
  8
Sichtbare_Kanten_TC_020513_DIN_
  6
Continuous
 62
     7
100
AcDbCircle
 10
56.53289616177571
 20
124.338350793787
 30
0.0
 40
0.6999999999999318
100
AcDbArc
 50
180.0
 51
0.0
  0
ARC
  5
4E4
330
1F
100
AcDbEntity
  8
Sichtbare_Kanten_TC_020513_DIN_
  6
Continuous
 62
     7
100
AcDbCircle
 10
56.53289616177571
 20
132.338350793787
 30
0.0
 40
0.7000000000000526
100
AcDbArc
 50
0.0
 51
180.0
  0
ARC
  5
4E5
330
1F
100
AcDbEntity
  8
Sichtbare_Kanten_TC_020513_DIN_
  6
Continuous
 62
     7
100
AcDbCircle
 10
123.9328961617756
 20
118.200695878779
 30
0.0
 40
1.5
100
AcDbArc
 50
180.0
 51
206.914149201852
  0
ARC
  5
4E6
330
1F
100
AcDbEntity
  8
Sichtbare_Kanten_TC_020513_DIN_
  6
Continuous
 62
     7
100
AcDbCircle
 10
123.9328961617756
 20
118.200695878779
 30
0.0
 40
0.1000000000000085
100
AcDbArc
 50
180.0
 51
270.0
  0
ARC
  5
4E7
330
1F
100
AcDbEntity
  8
Sichtbare_Kanten_TC_020513_DIN_
  6
Continuous
 62
     7
100
AcDbCircle
 10
59.73289616177576
 20
118.200695878779
 30
0.0
 40
1.499999999999861
100
AcDbArc
 50
333.0858507981503
 51
0.0
  0
ARC
  5
4E8
330
1F
100
AcDbEntity
  8
Sichtbare_Kanten_TC_020513_DIN_
  6
Continuous
 62
     7
100
AcDbCircle
 10
59.73289616177576
 20
118.200695878779
 30
0.0
 40
0.0999999999999943
100
AcDbArc
 50
270.0
 51
0.0
  0
ARC
  5
4E9
330
1F
100
AcDbEntity
  8
Sichtbare_Kanten_TC_020513_DIN_
  6
Continuous
 62
     7
100
AcDbCircle
 10
72.09953346436649
 20
135.449336128782
 30
0.0
 40
0.2500000000001582
100
AcDbArc
 50
15.00000000007917
 51
90.0
  0
ARC
  5
4EA
330
1F
100
AcDbEntity
  8
Sichtbare_Kanten_TC_020513_DIN_
  6
Continuous
 62
     7
100
AcDbCircle
 10
64.59953346436649
 20
144.699336128782
 30
0.0
 40
0.9999999999996895
100
AcDbArc
 50
39.9999999999743
 51
90.0
  0
ARC
  5
4EB
330
1F
100
AcDbEntity
  8
Sichtbare_Kanten_TC_020513_DIN_
  6
Continuous
 62
     7
100
AcDbCircle
 10
67.21034804303108
 20
144.699336128782
 30
0.0
 40
1.000000000000285
100
AcDbArc
 50
220.00000000002
 51
270.0
  0
ARC
  5
4EC
330
1F
100
AcDbEntity
  8
Sichtbare_Kanten_TC_020513_DIN_
  6
Continuous
 62
     7
100
AcDbCircle
 10
72.09953346436649
 20
145.199336128782
 30
0.0
 40
1.5
100
AcDbArc
 50
270.0
 51
313.7601210290242
  0
ARC
  5
4ED
330
1F
100
AcDbEntity
  8
Sichtbare_Kanten_TC_020513_DIN_
  6
Continuous
 62
     7
100
AcDbCircle
 10
111.5662588591846
 20
145.199336128782
 30
0.0
 40
1.499999999999319
100
AcDbArc
 50
226.2398789709958
 51
270.0
  0
ARC
  5
4EE
330
1F
100
AcDbEntity
  8
Sichtbare_Kanten_TC_020513_DIN_
  6
Continuous
 62
     7
100
AcDbCircle
 10
116.4554442805206
 20
144.699336128782
 30
0.0
 40
1.0
100
AcDbArc
 50
270.0
 51
319.999999999981
  0
ARC
  5
4EF
330
1F
100
AcDbEntity
  8
Sichtbare_Kanten_TC_020513_DIN_
  6
Continuous
 62
     7
100
AcDbCircle
 10
119.0662588591846
 20
144.699336128782
 30
0.0
 40
1.0
100
AcDbArc
 50
90.0
 51
139.9999999999797
  0
ARC
  5
4F0
330
1F
100
AcDbEntity
  8
Sichtbare_Kanten_TC_020513_DIN_
  6
Continuous
 62
     7
100
AcDbCircle
 10
111.5662588591846
 20
135.449336128782
 30
0.0
 40
0.25
100
AcDbArc
 50
90.0
 51
164.9999999999015
  0
ARC
  5
4F1
330
1F
100
AcDbEntity
  8
Sichtbare_Kanten_TC_020513_DIN_
  6
Continuous
 62
     7
100
AcDbCircle
 10
90.83289616177578
 20
137.713831429545
 30
0.0
 40
0.25
100
AcDbArc
 50
180.0
 51
0.0
  0
ARC
  5
4F2
330
1F
100
AcDbEntity
  8
Sichtbare_Kanten_TC_020513_DIN_
  6
Continuous
 62
     7
100
AcDbCircle
 10
90.83289616177578
 20
141.145562465721
 30
0.0
 40
0.2500000000001686
100
AcDbArc
 50
35.90957617709854
 51
180.0
  0
ARC
  5
4F3
330
1F
100
AcDbEntity
  8
Sichtbare_Kanten_TC_020513_DIN_
  6
Continuous
 62
     7
100
AcDbCircle
 10
92.83289616177578
 20
136.531139121852
 30
0.0
 40
0.25
100
AcDbArc
 50
180.0
 51
0.0
  0
ARC
  5
4F4
330
1F
100
AcDbEntity
  8
Sichtbare_Kanten_TC_020513_DIN_
  6
Continuous
 62
     7
100
AcDbCircle
 10
92.83289616177578
 20
141.145562465721
 30
0.0
 40
0.25
100
AcDbArc
 50
0.0
 51
144.0904238229091
  0
ARC
  5
4F5
330
1F
100
AcDbEntity
  8
Sichtbare_Kanten_TC_020513_DIN_
  6
Continuous
 62
     7
100
AcDbCircle
 10
89.78289616177577
 20
140.539793234952
 30
0.0
 40
0.25
100
AcDbArc
 50
0.0
 51
180.0
  0
ARC
  5
4F6
330
1F
100
AcDbEntity
  8
Sichtbare_Kanten_TC_020513_DIN_
  6
Continuous
 62
     7
100
AcDbCircle
 10
89.78289616177577
 20
137.136908352622
 30
0.0
 40
0.25
100
AcDbArc
 50
180.0
 51
240.0183606311322
  0
ARC
  5
4F7
330
1F
100
AcDbEntity
  8
Sichtbare_Kanten_TC_020513_DIN_
  6
Continuous
 62
     7
100
AcDbCircle
 10
91.83289616177578
 20
135.954216044929
 30
0.0
 40
0.2499999999998662
100
AcDbArc
 50
240.0183606311355
 51
60.01836063124941
  0
ARC
  5
4F8
330
1F
100
AcDbEntity
  8
Sichtbare_Kanten_TC_020513_DIN_
  6
Continuous
 62
     7
100
AcDbCircle
 10
88.78289616177577
 20
139.962870158029
 30
0.0
 40
0.25
100
AcDbArc
 50
0.0
 51
180.0
  0
ARC
  5
4F9
330
1F
100
AcDbEntity
  8
Sichtbare_Kanten_TC_020513_DIN_
  6
Continuous
 62
     7
100
AcDbCircle
 10
88.78289616177577
 20
137.713831429545
 30
0.0
 40
0.25
100
AcDbArc
 50
180.0
 51
0.0
  0
ARC
  5
4FA
330
1F
100
AcDbEntity
  8
Sichtbare_Kanten_TC_020513_DIN_
  6
Continuous
 62
     7
100
AcDbCircle
 10
93.83289616177578
 20
140.568639388798
 30
0.0
 40
0.2499999999998662
100
AcDbArc
 50
60.01836063113548
 51
180.0
  0
ARC
  5
4FB
330
1F
100
AcDbEntity
  8
Sichtbare_Kanten_TC_020513_DIN_
  6
Continuous
 62
     7
100
AcDbCircle
 10
94.83289616177578
 20
139.991716311875
 30
0.0
 40
0.2499999999998662
100
AcDbArc
 50
240.0183606311355
 51
60.01836063115805
  0
ARC
  5
4FC
330
1F
100
AcDbEntity
  8
Sichtbare_Kanten_TC_020513_DIN_
  6
Continuous
 62
     7
100
AcDbCircle
 10
93.83289616177578
 20
137.108062198776
 30
0.0
 40
0.25
100
AcDbArc
 50
180.0
 51
299.9816393687506
  0
ARC
  5
4FD
330
1F
100
AcDbEntity
  8
Sichtbare_Kanten_TC_020513_DIN_
  6
Continuous
 62
     7
100
AcDbCircle
 10
94.83289616177578
 20
137.684985275699
 30
0.0
 40
0.2499999999998662
100
AcDbArc
 50
299.9816393688645
 51
119.9816393688645
  0
ARC
  5
4FE
330
1F
100
AcDbEntity
  8
Sichtbare_Kanten_TC_020513_DIN_
  6
Continuous
 62
     7
100
AcDbCircle
 10
94.83289616177578
 20
138.838350793787
 30
0.0
 40
0.25
100
AcDbArc
 50
270.0
 51
90.0
  0
CIRCLE
  5
4FF
330
1F
100
AcDbEntity
  8
Sichtbare_Kanten_TC_020513_DIN_
  6
Continuous
 62
     7
100
AcDbCircle
 10
199.9785022473515
 20
117.338350793787
 30
0.0
 40
1.75
  0
CIRCLE
  5
500
330
1F
100
AcDbEntity
  8
Sichtbare_Kanten_TC_020513_DIN_
  6
Continuous
 62
     7
100
AcDbCircle
 10
202.9785022473505
 20
128.338350793787
 30
0.0
 40
4.700000000000102
  0
CIRCLE
  5
501
330
1F
100
AcDbEntity
  8
Sichtbare_Kanten_TC_020513_DIN_
  6
Continuous
 62
     7
100
AcDbCircle
 10
202.9785022473526
 20
98.91835079378697
 30
0.0
 40
10.57999999999601
  0
CIRCLE
  5
502
330
1F
100
AcDbEntity
  8
Sichtbare_Kanten_TC_020513_DIN_
  6
Continuous
 62
     7
100
AcDbCircle
 10
202.9785022473526
 20
98.91835079378697
 30
0.0
 40
7.580000000000013
  0
SPLINE
  5
503
330
1F
100
AcDbEntity
  8
Sichtbare_Kanten_TC_020513_DIN_
  6
Continuous
 62
     7
100
AcDbSpline
210
0.0
220
0.0
230
1.0
 70
     8
 71
     3
 72
    19
 73
    15
 74
    13
 42
0.000000001
 43
0.0000000001
 44
0.00000001
 40
0.0
 40
0.0
 40
0.0
 40
0.0
 40
0.3221862205370643
 40
0.6443862618344742
 40
0.8094705328399232
 40
0.9745562229284711
 40
1.142463280812491
 40
1.310374909567639
 40
1.480895931774286
 40
1.651417687594447
 40
1.824033462669039
 40
1.99666119504117
 40
2.257865073019726
 40
2.518894987889563
 40
2.518894987889563
 40
2.518894987889563
 40
2.518894987889563
 10
74.57365945905227
 20
128.039122363599
 30
0.0
 10
74.60987312193002
 20
127.9376880429605
 30
0.0
 10
74.68230201465309
 20
127.7348150559252
 30
0.0
 10
74.83169366108652
 20
127.5071246124166
 30
0.0
 10
74.97204733792317
 20
127.3409483738575
 30
0.0
 10
75.09039450897845
 20
127.2241315390434
 30
0.0
 10
75.21904327877127
 20
127.1173974963941
 30
0.0
 10
75.3578232910989
 20
127.0209845094637
 30
0.0
 10
75.5049574440587
 20
126.9361253152099
 30
0.0
 10
75.66000785785262
 20
126.8630635127846
 30
0.0
 10
75.8211647959048
 20
126.8025616118143
 30
0.0
 10
76.0157383711939
 20
126.7473058212063
 30
0.0
 10
76.24427864558217
 20
126.7045623291445
 30
0.0
 10
76.41845296259487
 20
126.6986175924348
 30
0.0
 10
76.5055111116304
 20
126.695646221545
 30
0.0
 11
74.57365945905227
 21
128.039122363599
 31
0.0
 11
74.69392387024848
 21
127.7402236628846
 31
0.0
 11
74.86720702305243
 21
127.468588214167
 31
0.0
 11
74.97390123580449
 21
127.3426153527927
 31
0.0
 11
75.09129754925729
 21
127.2265490315066
 31
0.0
 11
75.22049042936469
 21
127.1193017467916
 31
0.0
 11
75.35835823892833
 21
127.0234540426059
 31
0.0
 11
75.50604549049703
 21
126.9382138234118
 31
0.0
 11
75.66027458814898
 21
126.8654741859318
 31
0.0
 11
75.82188427936617
 21
126.8048234339242
 31
0.0
 11
75.98787302142534
 21
126.757409599487
 31
0.0
 11
76.24493910852412
 21
126.7111009261416
 31
0.0
 11
76.5055111116304
 21
126.695646221545
 31
0.0
  0
SPLINE
  5
504
330
1F
100
AcDbEntity
  8
Sichtbare_Kanten_TC_020513_DIN_
  6
Continuous
 62
     7
100
AcDbSpline
210
0.0
220
0.0
230
1.0
 70
     8
 71
     3
 72
    19
 73
    15
 74
    13
 42
0.000000001
 43
0.0000000001
 44
0.00000001
 40
0.0
 40
0.0
 40
0.0
 40
0.0
 40
0.3221862205371038
 40
0.6443862618345138
 40
0.8094705328399302
 40
0.9745562229284781
 40
1.142463280812498
 40
1.31037490956763
 40
1.48089593177425
 40
1.651417687594424
 40
1.824033462669021
 40
1.996661195041152
 40
2.257865073019727
 40
2.51889498788955
 40
2.51889498788955
 40
2.51889498788955
 40
2.51889498788955
 10
74.57365945905227
 20
127.447456797162
 30
0.0
 10
74.60987312193002
 20
127.3460224765235
 30
0.0
 10
74.68230201465306
 20
127.1431494894881
 30
0.0
 10
74.83169366108652
 20
126.9154590459796
 30
0.0
 10
74.97204733792319
 20
126.7492828074205
 30
0.0
 10
75.09039450897848
 20
126.6324659726064
 30
0.0
 10
75.21904327877124
 20
126.5257319299571
 30
0.0
 10
75.3578232910989
 20
126.4293189430267
 30
0.0
 10
75.5049574440587
 20
126.3444597487729
 30
0.0
 10
75.66000785785265
 20
126.2713979463477
 30
0.0
 10
75.82116479590476
 20
126.2108960453773
 30
0.0
 10
76.01573837119392
 20
126.1556402547693
 30
0.0
 10
76.24427864558217
 20
126.1128967627075
 30
0.0
 10
76.41845296259488
 20
126.1069520259977
 30
0.0
 10
76.5055111116304
 20
126.103980655108
 30
0.0
 11
74.57365945905227
 21
127.447456797162
 31
0.0
 11
74.69392387024848
 21
127.1485580964476
 31
0.0
 11
74.86720702305243
 21
126.87692264773
 31
0.0
 11
74.97390123580449
 21
126.7509497863557
 31
0.0
 11
75.09129754925729
 21
126.6348834650696
 31
0.0
 11
75.22049042936469
 21
126.5276361803546
 31
0.0
 11
75.35835823892833
 21
126.431788476169
 31
0.0
 11
75.50604549049702
 21
126.3465482569748
 31
0.0
 11
75.66027458814898
 21
126.2738086194949
 31
0.0
 11
75.82188427936617
 21
126.2131578674873
 31
0.0
 11
75.98787302142534
 21
126.1657440330501
 31
0.0
 11
76.24493910852414
 21
126.1194353597046
 31
0.0
 11
76.5055111116304
 21
126.103980655108
 31
0.0
  0
SPLINE
  5
505
330
1F
100
AcDbEntity
  8
Sichtbare_Kanten_TC_020513_DIN_
  6
Continuous
 62
     7
100
AcDbSpline
210
0.0
220
0.0
230
1.0
 70
     8
 71
     3
 72
    19
 73
    15
 74
    13
 42
0.000000001
 43
0.0000000001
 44
0.00000001
 40
0.0
 40
0.0
 40
0.0
 40
0.0
 40
0.3474606674149749
 40
0.69491753503008
 40
0.8665696488952233
 40
1.038221191656183
 40
1.207484861390496
 40
1.376745209810057
 40
1.543251855853933
 40
1.709751057160589
 40
1.873443934533959
 40
2.0371473361099
 40
2.278188137688264
 40
2.518986528947856
 40
2.518986528947856
 40
2.518986528947856
 40
2.518986528947856
 10
107.1602812119206
 20
126.103980655108
 30
0.0
 10
107.2762129818335
 20
126.1092376174997
 30
0.0
 10
107.5080752526823
 20
126.1197514994678
 30
0.0
 10
107.7901470588533
 20
126.1908248171805
 30
0.0
 10
108.0059311606872
 20
126.2713917929994
 30
0.0
 10
108.1606679090007
 20
126.3443856062442
 30
0.0
 10
108.308144697859
 20
126.4294317762904
 30
0.0
 10
108.4465728041791
 20
126.5255915031563
 30
0.0
 10
108.575583092011
 20
126.6326231975247
 30
0.0
 10
108.6935043820993
 20
126.7491305090993
 30
0.0
 10
108.8001681076412
 20
126.8748669742351
 30
0.0
 10
108.9090432779706
 20
127.0301031326842
 30
0.0
 10
109.0141769942421
 20
127.219125587935
 30
0.0
 10
109.0661562957522
 20
127.3713719237843
 30
0.0
 10
109.0921328644996
 20
127.447456797162
 30
0.0
 11
107.1602812119206
 21
126.103980655108
 31
0.0
 11
107.5066605312111
 21
126.1313719413467
 31
0.0
 11
107.8443214985724
 21
126.2132947499028
 31
0.0
 11
108.0050301177205
 21
126.273603854304
 31
0.0
 11
108.160281211921
 21
126.3468250947383
 31
0.0
 11
108.3068785198805
 21
126.4314384469832
 31
0.0
 11
108.4458564312943
 21
126.5280521411511
 31
0.0
 11
108.5739660025439
 21
126.6344119134832
 31
0.0
 11
108.6923700981594
 21
126.7514693970418
 31
0.0
 11
108.7981664034942
 21
126.8763793654146
 31
0.0
 11
108.8923320194899
 21
127.0102884421445
 31
0.0
 11
109.0075864372172
 21
127.22198891046
 31
0.0
 11
109.0921328644996
 21
127.447456797162
 31
0.0
  0
SPLINE
  5
506
330
1F
100
AcDbEntity
  8
Sichtbare_Kanten_TC_020513_DIN_
  6
Continuous
 62
     7
100
AcDbSpline
210
0.0
220
0.0
230
1.0
 70
     8
 71
     3
 72
    19
 73
    15
 74
    13
 42
0.000000001
 43
0.0000000001
 44
0.00000001
 40
0.0
 40
0.0
 40
0.0
 40
0.0
 40
0.3474606674141272
 40
0.6949175350291319
 40
0.8665696488942335
 40
1.038221191655247
 40
1.207484861389691
 40
1.376745209809245
 40
1.543251855852743
 40
1.709751057159028
 40
1.873443934532399
 40
2.037147336108479
 40
2.27818813768697
 40
2.518986528946564
 40
2.518986528946564
 40
2.518986528946564
 40
2.518986528946564
 10
107.1602812119216
 20
126.695646221545
 30
0.0
 10
107.2762129818342
 20
126.7009031839367
 30
0.0
 10
107.5080752526827
 20
126.7114170659049
 30
0.0
 10
107.7901470588534
 20
126.7824903836177
 30
0.0
 10
108.0059311606872
 20
126.8630573594364
 30
0.0
 10
108.1606679090008
 20
126.9360511726814
 30
0.0
 10
108.3081446978589
 20
127.0210973427278
 30
0.0
 10
108.4465728041788
 20
127.1172570695939
 30
0.0
 10
108.5755830920105
 20
127.2242887639622
 30
0.0
 10
108.6935043820986
 20
127.3407960755366
 30
0.0
 10
108.8001681076407
 20
127.4665325406722
 30
0.0
 10
108.9090432779704
 20
127.6217686991212
 30
0.0
 10
109.0141769942422
 20
127.810791154372
 30
0.0
 10
109.0661562957522
 20
127.9630374902212
 30
0.0
 10
109.0921328644996
 20
128.039122363599
 30
0.0
 11
107.1602812119216
 21
126.695646221545
 31
0.0
 11
107.5066605312112
 21
126.7230375077837
 31
0.0
 11
107.8443214985724
 21
126.8049603163398
 31
0.0
 11
108.0050301177205
 21
126.8652694207411
 31
0.0
 11
108.160281211921
 21
126.9384906611755
 31
0.0
 11
108.3068785198804
 21
127.0231040134207
 31
0.0
 11
108.4458564312941
 21
127.1197177075887
 31
0.0
 11
108.5739660025434
 21
127.2260774799207
 31
0.0
 11
108.6923700981587
 21
127.343134963479
 31
0.0
 11
108.7981664034936
 21
127.4680449318516
 31
0.0
 11
108.8923320194897
 21
127.6019540085815
 31
0.0
 11
109.0075864372171
 21
127.8136544768971
 31
0.0
 11
109.0921328644996
 21
128.039122363599
 31
0.0
  0
LWPOLYLINE
  5
507
330
1F
100
AcDbEntity
  8
Sichtbare_Kanten_TC_020513_DIN_
  6
Continuous
 62
     7
100
AcDbPolyline
 90
       25
 70
     0
 43
0.0
 10
231.2275442815046
 20
144.589197179743
 10
231.2226495480756
 20
144.575305721231
 10
231.2173518872486
 20
144.559658309885
 10
231.2117347455246
 20
144.542350313135
 10
231.2058887219656
 20
144.523481866785
 10
231.1998972630725
 20
144.503150722452
 10
231.1938533520916
 20
144.481454631754
 10
231.1878404355276
 20
144.458493730493
 10
231.1819467282515
 20
144.434364578195
 10
231.1762604451406
 20
144.409164926477
 10
231.1708698010666
 20
144.382996103235
 10
231.1658630109056
 20
144.355953475901
 10
231.1613807416186
 20
144.328707000681
 10
231.1575898862106
 20
144.302819511362
 10
231.1544403767806
 20
144.278382799097
 10
231.1518726086837
 20
144.2554064006289
 10
231.1498245930896
 20
144.233899852701
 10
231.1482414937236
 20
144.213875076242
 10
231.1470637059436
 20
144.19533922381
 10
231.1462268567305
 20
144.17830302424
 10
231.1456784939986
 20
144.162777206369
 10
231.1453542447316
 20
144.14877130694
 10
231.1451945042826
 20
144.1362960547889
 10
231.1451444363816
 20
144.125359794565
 10
231.1451396680096
 20
144.115973255106
  0
LWPOLYLINE
  5
508
330
1F
100
AcDbEntity
  8
Sichtbare_Kanten_TC_020513_DIN_
  6
Continuous
 62
     7
100
AcDbPolyline
 90
       25
 70
     0
 43
0.0
 10
232.5451407170516
 20
145.515973112055
 10
232.4734935498466
 20
145.514138481089
 10
232.4021801686516
 20
145.508654853769
 10
232.3313340878716
 20
145.499549648233
 10
232.2610912060966
 20
145.486853858896
 10
232.1915921902877
 20
145.470596095987
 10
232.1229705548516
 20
145.450803777643
 10
232.0553669667466
 20
145.427507898279
 10
231.9889173245656
 20
145.400737068125
 10
231.9238767361865
 20
145.370578309961
 10
231.8605932927356
 20
145.3371997088869
 10
231.7991838193167
 20
145.300688287683
 10
231.7397651410326
 20
145.261123916574
 10
231.6824493146166
 20
145.2185900420629
 10
231.6273507809866
 20
145.173168918558
 10
231.5745815968736
 20
145.124941608377
 10
231.5242562031966
 20
145.073991558023
 10
231.4765414929616
 20
145.020461818644
 10
231.4317068791616
 20
144.964658758112
 10
231.3898381924856
 20
144.9067194671119
 10
231.3510117268786
 20
144.846764347025
 10
231.3152966237286
 20
144.784914991327
 10
231.2827644086106
 20
144.721289417215
 10
231.2534889912825
 20
144.656010410257
 10
231.2275442815046
 20
144.589197179743
  0
LWPOLYLINE
  5
509
330
1F
100
AcDbEntity
  8
Sichtbare_Kanten_TC_020513_DIN_
  6
Continuous
 62
     7
100
AcDbPolyline
 90
       25
 70
     0
 43
0.0
 10
230.2358207440596
 20
145.69933607287
 10
230.3015336728316
 20
145.791153451868
 10
230.3709659314376
 20
145.8803327292879
 10
230.4440436101185
 20
145.966754695841
 10
230.5206522679556
 20
146.050257226892
 10
230.6004700398666
 20
146.1304862708529
 10
230.6833491063336
 20
146.2073214263399
 10
230.7691774106246
 20
146.280679246851
 10
230.8578428960066
 20
146.3504810542549
 10
230.9492358899337
 20
146.416643402048
 10
231.0432419514876
 20
146.479085227915
 10
231.1397514081226
 20
146.537724277445
 10
231.2386498189196
 20
146.592479488321
 10
231.3398275113326
 20
146.643268606134
 10
231.4430937504995
 20
146.689977189966
 10
231.5480956769216
 20
146.732440730997
 10
231.6546854710806
 20
146.770609161325
 10
231.7627343869436
 20
146.804437181421
 10
231.8721065259205
 20
146.83388187594
 10
231.9826564526786
 20
146.858894369074
 10
232.0940742230635
 20
146.879401943155
 10
232.2061691022146
 20
146.895379564234
 10
232.3188051915396
 20
146.906810543009
 10
232.4318418240776
 20
146.913680574366
 10
232.5451407170516
 20
146.915972969004
  0
LWPOLYLINE
  5
50A
330
1F
100
AcDbEntity
  8
Sichtbare_Kanten_TC_020513_DIN_
  6
Continuous
 62
     7
100
AcDbPolyline
 90
       25
 70
     0
 43
0.0
 10
231.1451396680096
 20
134.139158865877
 10
231.1453709340316
 20
134.113688609072
 10
231.1460671162825
 20
134.088236829706
 10
231.1472234463916
 20
134.062810680338
 10
231.1488423085436
 20
134.037415525385
 10
231.1509213185536
 20
134.012058517405
 10
231.1534604764206
 20
133.986745616861
 10
231.1564597821456
 20
133.96148278422
 10
231.1599168515425
 20
133.936276575991
 10
231.1638340687976
 20
133.911133548685
 10
231.1682090497236
 20
133.886059066721
 10
231.1730394101366
 20
133.861060878702
 10
231.1783251500346
 20
133.836143753
 10
231.1840638852336
 20
133.811326763101
 10
231.1902508473616
 20
133.786628982492
 10
231.1968836522326
 20
133.762055775591
 10
231.2039599156596
 20
133.737613102861
 10
231.2114796376446
 20
133.713306924768
 10
231.2194380498156
 20
133.689143797823
 10
231.2278327679856
 20
133.665129086443
 10
231.2366661763416
 20
133.641268751093
 10
231.2459311223246
 20
133.617569348284
 10
231.2556276059375
 20
133.594036242433
 10
231.2657532429916
 20
133.570675394007
 10
231.2763080334886
 20
133.547493359514
  0
LWPOLYLINE
  5
50B
330
1F
100
AcDbEntity
  8
Sichtbare_Kanten_TC_020513_DIN_
  6
Continuous
 62
     7
100
AcDbPolyline
 90
       25
 70
     0
 43
0.0
 10
230.0074777341106
 20
132.955827853151
 10
229.9863681531176
 20
133.0021922201599
 10
229.9661168790086
 20
133.048913320967
 10
229.9467215275986
 20
133.095979532667
 10
229.9281916356306
 20
133.143378636309
 10
229.9105272031056
 20
133.191099008985
 10
229.8937353825786
 20
133.239128729769
 10
229.8778185582385
 20
133.287455281683
 10
229.8627814984546
 20
133.336067339846
 10
229.8486289715986
 20
133.384952685305
 10
229.8353633618576
 20
133.434099099108
 10
229.8229894376017
 20
133.483494660326
 10
229.8115095830186
 20
133.533128044077
 10
229.8009381032206
 20
133.582962295481
 10
229.7912773823956
 20
133.632959267565
 10
229.7825298047286
 20
133.683107635446
 10
229.7746953702195
 20
133.733394286104
 10
229.7677812314256
 20
133.783806106516
 10
229.7617826199756
 20
133.834331771799
 10
229.7567019200546
 20
133.884958168932
 10
229.7525439000346
 20
133.935672184893
 10
229.7493061757305
 20
133.9864618987519
 10
229.7469935155136
 20
134.037314793535
 10
229.7456035351976
 20
134.08821775622
 10
229.7451386189676
 20
134.139158865877
  0
LWPOLYLINE
  5
50C
330
1F
100
AcDbEntity
  8
Sichtbare_Kanten_TC_020513_DIN_
  6
Continuous
 62
     7
100
AcDbPolyline
 90
       25
 70
     0
 43
0.0
 10
229.8376378750986
 20
145.69933607287
 10
229.7898802495186
 20
145.699874898859
 10
229.7415909505076
 20
145.701494953104
 10
229.6928009724796
 20
145.704201003977
 10
229.6435460782236
 20
145.707997819849
 10
229.5938620305246
 20
145.7128877849059
 10
229.5437845921695
 20
145.718876859613
 10
229.4933423733896
 20
145.725968620249
 10
229.4425759053416
 20
145.734167835184
 10
229.3915161824405
 20
145.743478080698
 10
229.3402299618906
 20
145.75389935679
 10
229.2899784779736
 20
145.765181323954
 10
229.2414555287546
 20
145.777095100351
 10
229.1947564816656
 20
145.789504787394
 10
229.1499743199525
 20
145.802276870676
 10
229.1072044110476
 20
145.815276643702
 10
229.0665397381966
 20
145.828369399973
 10
229.0280756688296
 20
145.841421625086
 10
228.9919099545656
 20
145.85429742045
 10
228.9581308102786
 20
145.8668632716619
 10
228.9268359875866
 20
145.8789832801299
 10
228.8981208539196
 20
145.890525123545
 10
228.8720783925236
 20
145.9013529033149
 10
228.8488015866465
 20
145.911333105036
 10
228.8283858037176
 20
145.920331022211
  0
LWPOLYLINE
  5
50D
330
1F
100
AcDbEntity
  8
Sichtbare_Kanten_TC_020513_DIN_
  6
Continuous
 62
     7
100
AcDbPolyline
 90
       25
 70
     0
 43
0.0
 10
228.8283858037176
 20
145.920331022211
 10
228.8084397053895
 20
145.929259797998
 10
228.7884673810187
 20
145.938187381693
 10
228.7684759831605
 20
145.947114965387
 10
228.7484607434456
 20
145.956042549082
 10
228.7284264302436
 20
145.964968940683
 10
228.7083730435556
 20
145.973896524378
 10
228.6882981991946
 20
145.9828229159789
 10
228.6682066655346
 20
145.991750499674
 10
228.6480984425726
 20
146.000676891275
 10
228.6279735303106
 20
146.00960447497
 10
228.6078319287486
 20
146.018533250757
 10
228.5876736378847
 20
146.027462026544
 10
228.5675058102786
 20
146.036389610239
 10
228.5473260617435
 20
146.045318386026
 10
228.5271367764657
 20
146.054245969721
 10
228.5069403386296
 20
146.063173553415
 10
228.4867343640507
 20
146.072099945017
 10
228.4665212369146
 20
146.081027528711
 10
228.4463009572206
 20
146.089953920313
 10
228.4260782933417
 20
146.0988803119139
 10
228.4058484769047
 20
146.107807895609
 10
228.3856138920965
 20
146.116735479303
 10
228.3653793072886
 20
146.125664255091
 10
228.3451399541086
 20
146.134591838785
  0
LWPOLYLINE
  5
50E
330
1F
100
AcDbEntity
  8
Sichtbare_Kanten_TC_020513_DIN_
  6
Continuous
 62
     7
100
AcDbPolyline
 90
       25
 70
     0
 43
0.0
 10
82.04953341553696
 20
116.10157921023
 10
82.04967408249868
 20
116.103289863535
 10
82.05023853848476
 20
116.105283042856
 10
82.0514353997518
 20
116.107470533319
 10
82.05330162117966
 20
116.109599611231
 10
82.05565123627682
 20
116.111464044519
 10
82.05838291714687
 20
116.113082906671
 10
82.061427522402
 20
116.114489576288
 10
82.06475048134817
 20
116.115717431971
 10
82.06828920910849
 20
116.116778394648
 10
82.07198112080587
 20
116.11768915362
 10
82.07576482365627
 20
116.118462821909
 10
82.07960038254757
 20
116.119117280909
 10
82.083519983988
 20
116.119676372476
 10
82.08749382565517
 20
116.120149633356
 10
82.09148852894796
 20
116.120544216104
 10
82.09546773503317
 20
116.120866081186
 10
82.09939746926327
 20
116.121123573252
 10
82.10324196885128
 20
116.121322652765
 10
82.10696606705679
 20
116.121471664377
 10
82.11053578923239
 20
116.121577760645
 10
82.1139159686376
 20
116.121648094126
 10
82.11707084248562
 20
116.121689817377
 10
82.1199658400823
 20
116.121708890863
 10
82.1225657946874
 20
116.121713659235
  0
LWPOLYLINE
  5
50F
330
1F
100
AcDbEntity
  8
Sichtbare_Kanten_TC_020513_DIN_
  6
Continuous
 62
     7
100
AcDbPolyline
 90
       25
 70
     0
 43
0.0
 10
101.5432265288646
 20
116.121713659235
 10
101.5458348281196
 20
116.121708890863
 10
101.5487185008336
 20
116.12169100947
 10
101.5518465525916
 20
116.121651670404
 10
101.5551850087456
 20
116.121586105295
 10
101.5587022788336
 20
116.121484777399
 10
101.5623661763476
 20
116.121341726251
 10
101.5661427266406
 20
116.121150991388
 10
101.5700009352976
 20
116.120904228159
 10
101.5739080197626
 20
116.120594284006
 10
101.5778306014346
 20
116.120215198465
 10
101.5817370898536
 20
116.119759818979
 10
101.5855947024636
 20
116.11922099299
 10
101.5893712527566
 20
116.118590375849
 10
101.5930333621316
 20
116.117863199182
 10
101.5965494401266
 20
116.117031118341
 10
101.5999016053486
 20
116.116082212397
 10
101.6031250245386
 20
116.114978334375
 10
101.6061594970036
 20
116.113701602884
 10
101.6089323050786
 20
116.11223413653
 10
101.6113701350496
 20
116.110564014383
 10
101.6134014613436
 20
116.108669778772
 10
101.6149517781546
 20
116.106529972025
 10
101.6159269101436
 20
116.104154130884
 10
101.6162589080146
 20
116.10157921023
  0
LWPOLYLINE
  5
510
330
1F
100
AcDbEntity
  8
Sichtbare_Kanten_TC_020513_DIN_
  6
Continuous
 62
     7
100
AcDbPolyline
 90
       25
 70
     0
 43
0.0
 10
122.2174271828936
 20
145.69933607287
 10
122.2316917664816
 20
145.699845096537
 10
122.2454389817526
 20
145.701366207071
 10
122.2586664445216
 20
145.703888675638
 10
122.2713741547876
 20
145.707400581308
 10
122.2835597283646
 20
145.7118935794319
 10
122.2952279336266
 20
145.7173569411719
 10
122.3063716180136
 20
145.723777553507
 10
122.3169979340846
 20
145.73114826388
 10
122.3271021134666
 20
145.739455959269
 10
122.3366746194176
 20
145.748679182001
 10
122.3456844575216
 20
145.7587630958039
 10
122.3541459328936
 20
145.769680282541
 10
122.3620709664636
 20
145.7814069003539
 10
122.3694738633446
 20
145.793922683664
 10
122.3763713128376
 20
145.80720259852
 10
122.3827370888996
 20
145.821131011911
 10
122.3884114510826
 20
145.835167905756
 10
122.3934158570576
 20
145.849080821939
 10
122.3977932221696
 20
145.862698099085
 10
122.4015888459496
 20
145.875848075815
 10
122.4048527962976
 20
145.888359090754
 10
122.4076256043726
 20
145.90005829043
 10
122.4099549538896
 20
145.910772821375
 10
122.4118885285666
 20
145.920331022211
  0
LWPOLYLINE
  5
511
330
1F
100
AcDbEntity
  8
Sichtbare_Kanten_TC_020513_DIN_
  6
Continuous
 62
     7
100
AcDbPolyline
 90
       25
 70
     0
 43
0.0
 10
123.7908801324176
 20
145.920331022211
 10
123.7872394807146
 20
145.911300918527
 10
123.7829288728046
 20
145.901287338205
 10
123.7778696305566
 20
145.890423795648
 10
123.7719806916526
 20
145.878848573633
 10
123.7651786095906
 20
145.8666928023779
 10
123.7573847062396
 20
145.854095956751
 10
123.7485155350976
 20
145.841189166971
 10
123.7384900338456
 20
145.8281107158149
 10
123.7272295243556
 20
145.8149953097779
 10
123.7146529443076
 20
145.801976463266
 10
123.7006768472006
 20
145.789191266962
 10
123.6852201707176
 20
145.776773235269
 10
123.6682042367266
 20
145.764859458872
 10
123.6495455987266
 20
145.753584644266
 10
123.6294802911096
 20
145.743218204447
 10
123.6083468682576
 20
145.733961603113
 10
123.5861524827286
 20
145.7258112639869
 10
123.5629090554526
 20
145.71876003451
 10
123.5386261231706
 20
145.712806722589
 10
123.5133108384416
 20
145.707945367762
 10
123.4869775063806
 20
145.7041723937469
 10
123.4596356637286
 20
145.701483032175
 10
123.4312900788596
 20
145.699872514673
 10
123.4019574410726
 20
145.69933607287
  0
LWPOLYLINE
  5
512
330
1F
100
AcDbEntity
  8
Sichtbare_Kanten_TC_020513_DIN_
  6
Continuous
 62
     7
100
AcDbPolyline
 90
       25
 70
     0
 43
0.0
 10
122.4118885285666
 20
145.920331022211
 10
122.4135979897786
 20
145.929259797998
 10
122.4152359254176
 20
145.938187381693
 10
122.4168023354816
 20
145.947114965387
 10
122.4182972199726
 20
145.956042549082
 10
122.4197181947046
 20
145.964968940683
 10
122.4210652596766
 20
145.973896524378
 10
122.4223431832606
 20
145.9828229159789
 10
122.4235448128986
 20
145.991750499674
 10
122.4246773011496
 20
146.000676891275
 10
122.4257358796406
 20
146.00960447497
 10
122.4267205483726
 20
146.018533250757
 10
122.4276336915306
 20
146.027462026544
 10
122.4284753091146
 20
146.036389610239
 10
122.4292406327536
 20
146.045318386026
 10
122.4299344308186
 20
146.054245969721
 10
122.4305567033106
 20
146.063173553415
 10
122.4311050660426
 20
146.072099945017
 10
122.4315795190146
 20
146.081027528711
 10
122.4319824464136
 20
146.089953920313
 10
122.4323114640526
 20
146.0988803119139
 10
122.4325665719316
 20
146.107807895609
 10
122.4327501542376
 20
146.116735479303
 10
122.4328598267846
 20
146.125664255091
 10
122.4328955895716
 20
146.134591838785
  0
LWPOLYLINE
  5
513
330
1F
100
AcDbEntity
  8
Sichtbare_Kanten_TC_020513_DIN_
  6
Continuous
 62
     7
100
AcDbPolyline
 90
       25
 70
     0
 43
0.0
 10
123.8328966386126
 20
146.134591838785
 10
123.8328227288536
 20
146.125664255091
 10
123.8326033837606
 20
146.116735479303
 10
123.8322386033346
 20
146.107807895609
 10
123.8317260033896
 20
146.0988803119139
 10
123.8310679681116
 20
146.089953920313
 10
123.8302644974996
 20
146.081027528711
 10
123.8293132073686
 20
146.072099945017
 10
123.8282164819056
 20
146.063173553415
 10
123.8269743211076
 20
146.054245969721
 10
123.8255867249776
 20
146.045318386026
 10
123.8240513093286
 20
146.036389610239
 10
123.8223728425316
 20
146.027462026544
 10
123.8205465562156
 20
146.018533250757
 10
123.8185748345666
 20
146.00960447497
 10
123.8164576775836
 20
146.000676891275
 10
123.8141950852686
 20
145.991750499674
 10
123.8117894418046
 20
145.9828229159789
 10
123.8092359788226
 20
145.973896524378
 10
123.8065394646936
 20
145.964968940683
 10
123.8036951310446
 20
145.956042549082
 10
123.8007077462486
 20
145.947114965387
 10
123.7975773103046
 20
145.938187381693
 10
123.7943014390276
 20
145.929259797998
 10
123.7908801324176
 20
145.920331022211
  0
LWPOLYLINE
  5
514
330
1F
100
AcDbEntity
  8
Sichtbare_Kanten_TC_020513_DIN_
  6
Continuous
 62
     7
100
AcDbPolyline
 90
       25
 70
     0
 43
0.0
 10
110.9563788659386
 20
134.139158865877
 10
110.9465500600146
 20
134.08821775622
 10
110.9367260224626
 20
134.037314793535
 10
110.9269055611896
 20
133.9864618987519
 10
110.9170862920096
 20
133.935672184893
 10
110.9072694070146
 20
133.884958168932
 10
110.8974537141136
 20
133.834331771799
 10
110.8876380212116
 20
133.783806106516
 10
110.8778211362176
 20
133.733394286104
 10
110.8680018670366
 20
133.683107635446
 10
110.8581814057636
 20
133.632959267565
 10
110.8483573682116
 20
133.582962295481
 10
110.8385285622886
 20
133.533128044077
 10
110.8287009484576
 20
133.483494660326
 10
110.8188757188136
 20
133.434099099108
 10
110.8090552575396
 20
133.384952685305
 10
110.7992371804526
 20
133.336067339846
 10
110.7894202954576
 20
133.287455281683
 10
110.7796034104636
 20
133.239128729769
 10
110.7697877175616
 20
133.191099008985
 10
110.7599708325676
 20
133.143378636309
 10
110.7501515633876
 20
133.095979532667
 10
110.7403311021136
 20
133.048913320967
 10
110.7305070645616
 20
133.0021922201599
 10
110.7206782586386
 20
132.955827853151
  0
LWPOLYLINE
  5
515
330
1F
100
AcDbEntity
  8
Sichtbare_Kanten_TC_020513_DIN_
  6
Continuous
 62
     7
100
AcDbPolyline
 90
       25
 70
     0
 43
0.0
 10
110.7206782586386
 20
133.547493359514
 10
110.7305070645616
 20
133.570675394007
 10
110.7403311021136
 20
133.594036242433
 10
110.7501515633876
 20
133.617569348284
 10
110.7599708325676
 20
133.641268751093
 10
110.7697877175616
 20
133.665129086443
 10
110.7796034104636
 20
133.689143797823
 10
110.7894202954576
 20
133.713306924768
 10
110.7992371804526
 20
133.737613102861
 10
110.8090552575396
 20
133.762055775591
 10
110.8188757188136
 20
133.786628982492
 10
110.8287009484576
 20
133.811326763101
 10
110.8385285622886
 20
133.836143753
 10
110.8483573682116
 20
133.861060878702
 10
110.8581814057636
 20
133.886059066721
 10
110.8680018670366
 20
133.911133548685
 10
110.8778211362176
 20
133.936276575991
 10
110.8876380212116
 20
133.96148278422
 10
110.8974537141136
 20
133.986745616861
 10
110.9072694070146
 20
134.012058517405
 10
110.9170862920096
 20
134.037415525385
 10
110.9269055611896
 20
134.062810680338
 10
110.9367260224626
 20
134.088236829706
 10
110.9465500600146
 20
134.113688609072
 10
110.9563788659386
 20
134.139158865877
  0
LWPOLYLINE
  5
516
330
1F
100
AcDbEntity
  8
Sichtbare_Kanten_TC_020513_DIN_
  6
Continuous
 62
     7
100
AcDbPolyline
 90
       25
 70
     0
 43
0.0
 10
109.4551095254236
 20
146.915972969004
 10
109.4827398545556
 20
146.912310859629
 10
109.5103177315996
 20
146.901362678476
 10
109.5378634221366
 20
146.883180877634
 10
109.5653924233726
 20
146.857822677561
 10
109.5929226167016
 20
146.82534291453
 10
109.6204742677026
 20
146.7857952327209
 10
109.6480628735826
 20
146.7392380446869
 10
109.6757039315516
 20
146.685730955072
 10
109.7033199555686
 20
146.625551721521
 10
109.7308894879626
 20
146.558935186335
 10
109.7584292180346
 20
146.486037513681
 10
109.7859570271776
 20
146.407016059824
 10
109.8134907967856
 20
146.3220257968389
 10
109.8410496003436
 20
146.231226465174
 10
109.8686489350606
 20
146.134773036905
 10
109.8962983376796
 20
146.03286578364
 10
109.9239322430896
 20
145.925993463465
 10
109.9515554196646
 20
145.814433834024
 10
109.9791833646106
 20
145.698407432505
 10
110.0068351514146
 20
145.578144332834
 10
110.0344750172906
 20
145.454102298685
 10
110.0620981938646
 20
145.326631805368
 10
110.0897237546256
 20
145.195986768671
 10
110.1173695809656
 20
145.0624199122869
  0
LWPOLYLINE
  5
517
330
1F
100
AcDbEntity
  8
Sichtbare_Kanten_TC_020513_DIN_
  6
Continuous
 62
     7
100
AcDbPolyline
 90
       25
 70
     0
 43
0.0
 10
110.1173695809656
 20
145.0624199122869
 10
110.1342770345026
 20
144.985748073526
 10
110.1523801572136
 20
144.91350366778
 10
110.1713630444816
 20
144.845706960626
 10
110.1909097916896
 20
144.782374641367
 10
110.2107021100336
 20
144.723528167673
 10
110.2304240948966
 20
144.669187805124
 10
110.2497598416616
 20
144.619371435114
 10
110.2684065587326
 20
144.574063560434
 10
110.2869281060506
 20
144.5314831943
 10
110.3056594617176
 20
144.490638515421
 10
110.3244921452806
 20
144.451558134027
 10
110.3433152921016
 20
144.41426708407
 10
110.3620216138176
 20
144.378792783686
 10
110.3805014378836
 20
144.345160266825
 10
110.3986450917536
 20
144.313395759531
 10
110.4163429028796
 20
144.283527872034
 10
110.4334863908106
 20
144.255580446192
 10
110.4499670750906
 20
144.229582092234
 10
110.4656740910816
 20
144.20555784411
 10
110.4805001504236
 20
144.183533927866
 10
110.4943343884756
 20
144.163536569544
 10
110.5070683247856
 20
144.145594379373
 10
110.5185922868066
 20
144.12973000712
 10
110.5287977940846
 20
144.115973255106
  0
LWPOLYLINE
  5
518
330
1F
100
AcDbEntity
  8
Sichtbare_Kanten_TC_020513_DIN_
  6
Continuous
 62
     7
100
AcDbPolyline
 90
       25
 70
     0
 43
0.0
 10
110.1173695809656
 20
144.589197179743
 10
110.0897142178826
 20
144.656004449793
 10
110.0621124989796
 20
144.721267959543
 10
110.0345489270496
 20
144.784867307611
 10
110.0070044286066
 20
144.846683284708
 10
109.9794623143486
 20
144.906596681543
 10
109.9519023186976
 20
144.964488288828
 10
109.9243089444446
 20
145.020238897272
 10
109.8966643101976
 20
145.073728105493
 10
109.8689982182786
 20
145.124746105143
 10
109.8413881547266
 20
145.173023483225
 10
109.8138198144246
 20
145.218475601145
 10
109.7862729317956
 20
145.261023780771
 10
109.7587320096306
 20
145.30058815188
 10
109.7311767823506
 20
145.337091228434
 10
109.7035905606556
 20
145.370451948114
 10
109.6759554631526
 20
145.400592824884
 10
109.6482834107686
 20
145.42740537829
 10
109.6206590421016
 20
145.450739404627
 10
109.5930752045916
 20
145.470557949015
 10
109.5655116326616
 20
145.48683478541
 10
109.5379516370106
 20
145.499542495676
 10
109.5103761441516
 20
145.508652469583
 10
109.4827684647846
 20
145.514138481089
 10
109.4551095254236
 20
145.515973112055
  0
LWPOLYLINE
  5
519
330
1F
100
AcDbEntity
  8
Sichtbare_Kanten_TC_020513_DIN_
  6
Continuous
 62
     7
100
AcDbPolyline
 90
       25
 70
     0
 43
0.0
 10
110.5287977940846
 20
144.115973255106
 10
110.5148920304586
 20
144.125359794565
 10
110.4991325623796
 20
144.1362960547889
 10
110.4817148930836
 20
144.14877130694
 10
110.4628333337116
 20
144.162777206369
 10
110.4426833874986
 20
144.17830302424
 10
110.4214593655876
 20
144.19533922381
 10
110.3993579633046
 20
144.213875076242
 10
110.3765722996996
 20
144.233899852701
 10
110.3532978780086
 20
144.2554064006289
 10
110.3297302014636
 20
144.278382799097
 10
110.3060635812096
 20
144.302819511362
 10
110.2824935204796
 20
144.328707000681
 10
110.2592798955256
 20
144.355953475901
 10
110.2377352006246
 20
144.382996103235
 10
110.2182373292256
 20
144.409164926477
 10
110.2006789929676
 20
144.434364578195
 10
110.1849540955836
 20
144.458493730493
 10
110.1709589249896
 20
144.481454631754
 10
110.1585861928276
 20
144.503150722452
 10
110.1477298028276
 20
144.523481866785
 10
110.1382860429096
 20
144.542350313135
 10
110.1301488168046
 20
144.559658309885
 10
110.1232120282466
 20
144.575305721231
 10
110.1173695809656
 20
144.589197179743
  0
LWPOLYLINE
  5
51A
330
1F
100
AcDbEntity
  8
Sichtbare_Kanten_TC_020513_DIN_
  6
Continuous
 62
     7
100
AcDbPolyline
 90
       25
 70
     0
 43
0.0
 10
73.54842274258627
 20
144.589197179743
 10
73.54258029530538
 20
144.575305721231
 10
73.53564350674648
 20
144.559658309885
 10
73.52750628064169
 20
144.542350313135
 10
73.51806252072348
 20
144.523481866785
 10
73.50720613072409
 20
144.503150722452
 10
73.49483339856167
 20
144.481454631754
 10
73.4808382279684
 20
144.458493730493
 10
73.46511333058376
 20
144.434364578195
 10
73.44755499432577
 20
144.409164926477
 10
73.4280571229269
 20
144.382996103235
 10
73.40651242802639
 20
144.355953475901
 10
73.38329880307217
 20
144.328707000681
 10
73.35972874234218
 20
144.302819511362
 10
73.33606212208755
 20
144.278382799097
 10
73.31249444554348
 20
144.2554064006289
 10
73.28922002385158
 20
144.233899852701
 10
73.26643436024679
 20
144.213875076242
 10
73.24433295796408
 20
144.19533922381
 10
73.22310893605251
 20
144.17830302424
 10
73.20295898983969
 20
144.162777206369
 10
73.1840774304678
 20
144.14877130694
 10
73.16665976117147
 20
144.1362960547889
 10
73.15090029309292
 20
144.125359794565
 10
73.13699452946676
 20
144.115973255106
  0
LWPOLYLINE
  5
51B
330
1F
100
AcDbEntity
  8
Sichtbare_Kanten_TC_020513_DIN_
  6
Continuous
 62
     7
100
AcDbPolyline
 90
       25
 70
     0
 43
0.0
 10
73.13699452946676
 20
144.115973255106
 10
73.14720003674515
 20
144.12973000712
 10
73.15872399876608
 20
144.145594379373
 10
73.17145793507589
 20
144.163536569544
 10
73.18529217312832
 20
144.183533927866
 10
73.20011823246969
 20
144.20555784411
 10
73.2158252484609
 20
144.229582092234
 10
73.2323059327413
 20
144.255580446192
 10
73.2494494206716
 20
144.283527872034
 10
73.26714723179836
 20
144.313395759531
 10
73.28529088566799
 20
144.345160266825
 10
73.3037707097341
 20
144.378792783686
 10
73.32247703145046
 20
144.41426708407
 10
73.34130017827047
 20
144.451558134027
 10
73.36013286183376
 20
144.490638515421
 10
73.37886421750088
 20
144.5314831943
 10
73.39738576481838
 20
144.574063560434
 10
73.41603248188991
 20
144.619371435114
 10
73.435368228655
 20
144.669187805124
 10
73.45509021351828
 20
144.723528167673
 10
73.47488253186239
 20
144.782374641367
 10
73.49442927907009
 20
144.845706960626
 10
73.5134121663381
 20
144.9135048598729
 10
73.53151528904928
 20
144.985748073526
 10
73.54842274258627
 20
145.0624199122869
  0
LWPOLYLINE
  5
51C
330
1F
100
AcDbEntity
  8
Sichtbare_Kanten_TC_020513_DIN_
  6
Continuous
 62
     7
100
AcDbPolyline
 90
       25
 70
     0
 43
0.0
 10
74.21068279812832
 20
145.515973112055
 10
74.18302624295248
 20
145.514138481089
 10
74.15542571614279
 20
145.508654853769
 10
74.12786214421291
 20
145.499549648233
 10
74.10031764576931
 20
145.486853858896
 10
74.0727743394186
 20
145.470596095987
 10
74.0452155358602
 20
145.450803777643
 10
74.01762216160787
 20
145.427507898279
 10
73.98997633526821
 20
145.400737068125
 10
73.9623114354421
 20
145.370578309961
 10
73.9347013718893
 20
145.3371997088869
 10
73.90713303158779
 20
145.300688287683
 10
73.8795861489584
 20
145.261123916574
 10
73.85204403470058
 20
145.2185900420629
 10
73.82448999951382
 20
145.173168918558
 10
73.79690377781876
 20
145.124941608377
 10
73.76926748822231
 20
145.073991558023
 10
73.74159662793178
 20
145.020461818644
 10
73.71397225926418
 20
144.964658758112
 10
73.68638842175497
 20
144.9067194671119
 10
73.6588248498251
 20
144.846764347025
 10
73.6312636620809
 20
144.784914991327
 10
73.60368936131496
 20
144.721289417215
 10
73.576080489855
 20
144.656010410257
 10
73.54842274258627
 20
144.589197179743
  0
LWPOLYLINE
  5
51D
330
1F
100
AcDbEntity
  8
Sichtbare_Kanten_TC_020513_DIN_
  6
Continuous
 62
     7
100
AcDbPolyline
 90
       25
 70
     0
 43
0.0
 10
73.54842274258627
 20
145.0624199122869
 10
73.57605187962551
 20
145.195910474726
 10
73.60363094876308
 20
145.3263349742369
 10
73.63117544720669
 20
145.45345380015
 10
73.65870444844259
 20
145.577027341791
 10
73.6862358338644
 20
145.696814796396
 10
73.71378629277248
 20
145.812578937479
 10
73.74137489865316
 20
145.924077770182
 10
73.7690159566213
 20
146.03105857081
 10
73.79663317273159
 20
146.132939598032
 10
73.824202705126
 20
146.229389450022
 10
73.85174243519796
 20
146.320242425867
 10
73.87927024434109
 20
146.405332824655
 10
73.90680401394857
 20
146.484494945475
 10
73.93436281750698
 20
146.557565471598
 10
73.96196215222378
 20
146.624378702112
 10
73.98961036274929
 20
146.6847450942479
 10
74.0172454602529
 20
146.7383582801299
 10
74.04486744473476
 20
146.785091897913
 10
74.07249658177389
 20
146.824855348536
 10
74.10014836857809
 20
146.857558032938
 10
74.1277870423605
 20
146.883068820902
 10
74.1554114110281
 20
146.901329299875
 10
74.1830369717886
 20
146.91230728335
 10
74.21068279812832
 20
146.915972969004
  0
LWPOLYLINE
  5
51E
330
1F
100
AcDbEntity
  8
Sichtbare_Kanten_TC_020513_DIN_
  6
Continuous
 62
     7
100
AcDbPolyline
 90
       25
 70
     0
 43
0.0
 10
61.25390379498501
 20
145.920331022211
 10
61.25573008130087
 20
145.911247274347
 10
61.25786869595547
 20
145.901268264719
 10
61.2603554017355
 20
145.890513202616
 10
61.26323549817099
 20
145.879106065699
 10
61.2665495164205
 20
145.86716725535
 10
61.2703332192709
 20
145.854818365045
 10
61.27463429043789
 20
145.842182180353
 10
61.2794884927084
 20
145.829379102655
 10
61.2849387414266
 20
145.81653191752
 10
61.29102318356527
 20
145.803762218424
 10
61.29778711865438
 20
145.791191598841
 10
61.3052663094808
 20
145.778941652246
 10
61.31350605557461
 20
145.767133972116
 10
61.3225421197225
 20
145.755891344019
 10
61.332348275881
 20
145.745406887003
 10
61.34277670453091
 20
145.735929748484
 10
61.353829789858
 20
145.727490922876
 10
61.36551706860561
 20
145.7201106757599
 10
61.37784330914516
 20
145.713810464807
 10
61.39079897473349
 20
145.70862009234
 10
61.40433638165487
 20
145.7045693606819
 10
61.4184459931661
 20
145.701666614481
 10
61.43312542508139
 20
145.699920198389
 10
61.44836514065761
 20
145.69933607287
  0
LWPOLYLINE
  5
51F
330
1F
100
AcDbEntity
  8
Sichtbare_Kanten_TC_020513_DIN_
  6
Continuous
 62
     7
100
AcDbPolyline
 90
       25
 70
     0
 43
0.0
 10
60.2638348824789
 20
145.69933607287
 10
60.2344187981893
 20
145.699874898859
 10
60.2059969193746
 20
145.701494953104
 10
60.17858116696365
 20
145.704201003977
 10
60.15218107769979
 20
145.707997819849
 10
60.12680618832607
 20
145.7128877849059
 10
60.10246603558559
 20
145.718876859613
 10
60.07917492459316
 20
145.725968620249
 10
60.0569376237203
 20
145.734167835184
 10
60.03576843808187
 20
145.743478080698
 10
60.01568405697836
 20
145.75389935679
 10
59.9970969445516
 20
145.765181323954
 10
59.98014776776327
 20
145.777095100351
 10
59.96475069592489
 20
145.789504787394
 10
59.95082943509121
 20
145.802276870676
 10
59.93830292294521
 20
145.815276643702
 10
59.92708771298428
 20
145.828369399973
 10
59.9171027428915
 20
145.841421625086
 10
59.90827171872158
 20
145.85429742045
 10
59.90050880978598
 20
145.8668632716619
 10
59.8937353379537
 20
145.8789832801299
 10
59.8878702409078
 20
145.890525123545
 10
59.88283245633139
 20
145.9013529033149
 10
59.87853853772177
 20
145.911333105036
 10
59.87491219113369
 20
145.920331022211
  0
LWPOLYLINE
  5
520
330
1F
100
AcDbEntity
  8
Sichtbare_Kanten_TC_020513_DIN_
  6
Continuous
 62
     7
100
AcDbPolyline
 90
       25
 70
     0
 43
0.0
 10
61.23289673398026
 20
146.134591838785
 10
61.23293249676718
 20
146.125664255091
 10
61.23304216931356
 20
146.116735479303
 10
61.23322575161947
 20
146.107807895609
 10
61.23348085949917
 20
146.0988803119139
 10
61.23380987713827
 20
146.089953920313
 10
61.23421280453701
 20
146.081027528711
 10
61.23468725750936
 20
146.072099945017
 10
61.2352356202413
 20
146.063173553415
 10
61.23585789273281
 20
146.054245969721
 10
61.236551690798
 20
146.045318386026
 10
61.23731701443691
 20
146.036389610239
 10
61.23815863202108
 20
146.027462026544
 10
61.2390717751791
 20
146.018533250757
 10
61.24005644391079
 20
146.00960447497
 10
61.241115022402
 20
146.000676891275
 10
61.24224751065268
 20
145.991750499674
 10
61.2434491402914
 20
145.9828229159789
 10
61.24472706387539
 20
145.973896524378
 10
61.24607412884731
 20
145.964968940683
 10
61.2474951035787
 20
145.956042549082
 10
61.24898998806967
 20
145.947114965387
 10
61.25055639813436
 20
145.938187381693
 10
61.25219433377279
 20
145.929259797998
 10
61.25390379498501
 20
145.920331022211
  0
LWPOLYLINE
  5
521
330
1F
100
AcDbEntity
  8
Sichtbare_Kanten_TC_020513_DIN_
  6
Continuous
 62
     7
100
AcDbPolyline
 90
       25
 70
     0
 43
0.0
 10
59.87491219113369
 20
145.920331022211
 10
59.87149088452358
 20
145.929259797998
 10
59.86821501324667
 20
145.938187381693
 10
59.86508457730307
 20
145.947114965387
 10
59.86209719250698
 20
145.956042549082
 10
59.8592528588583
 20
145.964968940683
 10
59.8565563447286
 20
145.973896524378
 10
59.85400288174648
 20
145.9828229159789
 10
59.85159723828329
 20
145.991750499674
 10
59.84933464596767
 20
146.000676891275
 10
59.84721748898519
 20
146.00960447497
 10
59.84524576733608
 20
146.018533250757
 10
59.84341948102016
 20
146.027462026544
 10
59.84174101422329
 20
146.036389610239
 10
59.84020559857387
 20
146.045318386026
 10
59.8388180024435
 20
146.054245969721
 10
59.83757584164638
 20
146.063173553415
 10
59.83647911618246
 20
146.072099945017
 10
59.8355278260519
 20
146.081027528711
 10
59.83472435544027
 20
146.089953920313
 10
59.83406632016201
 20
146.0988803119139
 10
59.83355372021688
 20
146.107807895609
 10
59.83318893979086
 20
146.116735479303
 10
59.83296959469809
 20
146.125664255091
 10
59.83289568493856
 20
146.134591838785
  0
LWPOLYLINE
  5
522
330
1F
100
AcDbEntity
  8
Sichtbare_Kanten_TC_020513_DIN_
  6
Continuous
 62
     7
100
AcDbPolyline
 90
       25
 70
     0
 43
0.0
 10
72.70941345761318
 20
134.139158865877
 10
72.71924226353659
 20
134.113688609072
 10
72.72906630108847
 20
134.088236829706
 10
72.73888676236172
 20
134.062810680338
 10
72.74870603154201
 20
134.037415525385
 10
72.75852291653646
 20
134.012058517405
 10
72.76833860943808
 20
133.986745616861
 10
72.77815430233969
 20
133.96148278422
 10
72.7879711873342
 20
133.936276575991
 10
72.79779045651449
 20
133.911133548685
 10
72.80761091778768
 20
133.886059066721
 10
72.81743495533956
 20
133.861060878702
 10
72.82726376126308
 20
133.836143753
 10
72.83709137509359
 20
133.811326763101
 10
72.84691660473837
 20
133.786628982492
 10
72.85673706601156
 20
133.762055775591
 10
72.86655514309896
 20
133.737613102861
 10
72.87637202809347
 20
133.713306924768
 10
72.88618891308798
 20
133.689143797823
 10
72.89600460598959
 20
133.665129086443
 10
72.9058214909841
 20
133.641268751093
 10
72.9156407601644
 20
133.617569348284
 10
72.92546122143759
 20
133.594036242433
 10
72.93528525898947
 20
133.570675394007
 10
72.94511406491299
 20
133.547493359514
  0
LWPOLYLINE
  5
523
330
1F
100
AcDbEntity
  8
Sichtbare_Kanten_TC_020513_DIN_
  6
Continuous
 62
     7
100
AcDbPolyline
 90
       25
 70
     0
 43
0.0
 10
72.94511406491299
 20
132.955827853151
 10
72.93528525898947
 20
133.0021922201599
 10
72.92546122143759
 20
133.048913320967
 10
72.9156407601644
 20
133.095979532667
 10
72.9058214909841
 20
133.143378636309
 10
72.89600460598959
 20
133.191099008985
 10
72.88618891308798
 20
133.239128729769
 10
72.87637202809347
 20
133.287455281683
 10
72.86655514309896
 20
133.336067339846
 10
72.85673706601156
 20
133.384952685305
 10
72.84691660473837
 20
133.434099099108
 10
72.83709137509359
 20
133.483494660326
 10
72.82726376126308
 20
133.533128044077
 10
72.81743495533956
 20
133.582962295481
 10
72.80761091778768
 20
133.632959267565
 10
72.79779045651449
 20
133.683107635446
 10
72.7879711873342
 20
133.733394286104
 10
72.77815430233969
 20
133.783806106516
 10
72.76833860943808
 20
133.834331771799
 10
72.75852291653646
 20
133.884958168932
 10
72.74870603154201
 20
133.935672184893
 10
72.73888676236172
 20
133.9864618987519
 10
72.72906630108847
 20
134.037314793535
 10
72.71924226353659
 20
134.08821775622
 10
72.70941345761318
 20
134.139158865877
  0
SOLID
  5
524
330
1F
100
AcDbEntity
  8
Symbole_TC_020513_DIN_
 62
     7
100
AcDbTrace
 10
224.8370283840786
 20
80.6341771010974
 30
0.0
 11
224.3326280338187
 21
80.21122345152966
 31
0.0
 12
222.9785022473505
 22
82.33835079378687
 32
0.0
 13
222.9785022473505
 23
82.33835079378687
 33
0.0
  0
LEADER
  5
525
330
1F
100
AcDbEntity
  8
Symbole_TC_020513_DIN_
  6
Continuous
 62
     7
100
AcDbLeader
  3
Standard
 71
     0
 76
     3
 10
222.9785022473505
 20
82.33835079378687
 30
0.0
 10
240.3025742006986
 20
61.67824307246266
 30
0.0
 10
242.0025742006986
 20
61.67824307246266
 30
0.0
  0
DIMENSION
  5
531
330
1F
100
AcDbEntity
  8
Bemaßungen_TC_020513_DIN_
100
AcDbDimension
  2
*D3
 10
160.9785022473488
 20
82.3383507937871
 30
0.0
 11
156.6021038844566
 21
109.201529511386
 31
0.0
 70
    32
  1
53
 71
     5
 42
-1.0
 53
90.0
  3
ME10_DIM_10
100
AcDbAlignedDimension
 13
186.7285022473526
 23
135.338350793787
 33
0.0
 14
176.9785022473486
 24
82.33835079378687
 34
0.0
 50
90.0
100
AcDbRotatedDimension
  0
DIMENSION
  5
53C
330
1F
100
AcDbEntity
  8
Bemaßungen_TC_020513_DIN_
100
AcDbDimension
  2
*D4
 10
244.9785022473486
 20
86.33835079378687
 30
0.0
 11
240.6785022473485
 21
84.56291423171326
 31
0.0
 70
    32
  1
4
 71
     5
 42
-1.0
 53
90.0
  3
ME10_DIM_11
100
AcDbAlignedDimension
 13
228.9785022473486
 23
82.33835079378687
 33
0.0
 14
228.9785022473486
 24
86.33835079378687
 34
0.0
 50
90.0
100
AcDbRotatedDimension
  0
DIMENSION
  5
547
330
1F
100
AcDbEntity
  8
Bemaßungen_TC_020513_DIN_
100
AcDbDimension
  2
*D5
 10
176.9785022473487
 20
60.92258930583591
 30
0.0
 11
203.3595868312505
 21
65.29660021988776
 31
0.0
 70
    32
  1
52
 71
     5
 42
-1.0
 53
0.00013888888889
  3
ME10_DIM_12
100
AcDbAlignedDimension
 13
228.9785022473486
 23
84.33835079378687
 33
0.0
 14
176.9785022473486
 24
84.33835079378687
 34
0.0
100
AcDbRotatedDimension
  0
DIMENSION
  5
552
330
1F
100
AcDbEntity
  8
Bemaßungen_TC_020513_DIN_
100
AcDbDimension
  2
*D6
 10
222.978502247351
 20
69.83835079378693
 30
0.0
 11
203.2772198462596
 21
74.21236170783877
 31
0.0
 70
    32
  1
40
 71
     5
 42
-1.0
 53
0.00013888888889
  3
ME10_DIM_13
100
AcDbAlignedDimension
 13
182.9785022473505
 23
84.33835079378687
 33
0.0
 14
222.9785022473505
 24
79.83835079378687
 34
0.0
100
AcDbRotatedDimension
  0
DIMENSION
  5
55D
330
1F
100
AcDbEntity
  8
Bemaßungen_TC_020513_DIN_
100
AcDbDimension
  2
*D7
 10
50.83289616177581
 20
60.92258930583591
 30
0.0
 11
92.21159329683721
 21
65.29660021988776
 31
0.0
 70
    32
  1
82
 71
     5
 42
-1.0
 53
0.00013888888889
  3
ME10_DIM_14
100
AcDbAlignedDimension
 13
132.8328961617756
 23
84.33835079378687
 33
0.0
 14
50.83289616177578
 24
84.33835079378687
 34
0.0
100
AcDbRotatedDimension
  0
DIMENSION
  5
568
330
1F
100
AcDbEntity
  8
Bemaßungen_TC_020513_DIN_
100
AcDbDimension
  2
*D8
 10
126.8328961617757
 20
69.83835079378693
 30
0.0
 11
92.21636819451791
 21
74.21236170783877
 31
0.0
 70
    32
  1
70
 71
     5
 42
-1.0
 53
0.00013888888889
  3
ME10_DIM_15
100
AcDbAlignedDimension
 13
56.83289616177578
 23
79.83835079378687
 33
0.0
 14
126.8328961617756
 24
79.83835079378687
 34
0.0
100
AcDbRotatedDimension
  0
DIMENSION
  5
573
330
1F
100
AcDbEntity
  8
Bemaßungen_TC_020513_DIN_
100
AcDbDimension
  2
*D9
 10
40.83289616177576
 20
153.3383507937867
 30
0.0
 11
36.51857146873348
 21
118.553678215342
 31
0.0
 70
    32
  1
71
 71
     5
 42
-1.0
 53
90.0
  3
ME10_DIM_16
100
AcDbAlignedDimension
 13
50.83289616177578
 23
82.33835079378687
 33
0.0
 14
59.83289616177578
 24
153.338350793787
 34
0.0
 50
90.0
100
AcDbRotatedDimension
  0
DIMENSION
  5
57E
330
1F
100
AcDbEntity
  8
Bemaßungen_TC_020513_DIN_
100
AcDbDimension
  2
*D10
 10
248.912452219072
 20
160.3383507937867
 30
0.0
 11
213.3408865101546
 21
164.652675486829
 31
0.0
 70
    32
  1
72
 71
     5
 42
-1.0
 53
0.00013888888889
  3
ME10_DIM_17
100
AcDbAlignedDimension
 13
176.9785022473486
 23
84.33835079378687
 33
0.0
 14
248.9124522190716
 24
117.338350793787
 34
0.0
100
AcDbRotatedDimension
  0
DIMENSION
  5
589
330
1F
100
AcDbEntity
  8
Bemaßungen_TC_020513_DIN_
100
AcDbDimension
  2
*D11
 10
55.83289616177569
 20
160.3383507937867
 30
0.0
 11
92.22830543871979
 21
164.652675486829
 31
0.0
 70
    32
  1
72
 71
     5
 42
-1.0
 53
0.00013888888889
  3
ME10_DIM_18
100
AcDbAlignedDimension
 13
127.8328961617756
 23
132.338350793787
 33
0.0
 14
55.83289616177578
 24
132.338350793787
 34
0.0
100
AcDbRotatedDimension
  0
DIMENSION
  5
594
330
1F
100
AcDbEntity
  8
Bemaßungen_TC_020513_DIN_
100
AcDbDimension
  2
*D12
 10
142.8328961617758
 20
110.6603507937868
 30
0.0
 11
138.4135237197566
 21
98.02840536404597
 31
0.0
 70
    32
  1
PG16
 71
     5
 42
-1.0
 53
90.0
  3
ME10_DIM_19
100
AcDbAlignedDimension
 13
132.8328961617756
 23
87.17635079378697
 33
0.0
 14
132.8328961617756
 24
110.660350793787
 34
0.0
 50
90.0
100
AcDbRotatedDimension
  0
ENDSEC
  0
SECTION
  2
OBJECTS
  0
DICTIONARY
  5
C
330
0
100
AcDbDictionary
281
     1
  3
ACAD_GROUP
350
D
  3
ACAD_LAYOUT
350
1A
  3
ACAD_MATERIAL
350
3B
  3
ACAD_MLEADERSTYLE
350
597
  3
ACAD_MLINESTYLE
350
17
  3
ACAD_PLOTSETTINGS
350
19
  3
ACAD_PLOTSTYLENAME
350
E
  3
ACAD_VISUALSTYLE
350
2A
  3
AcDbVariableDictionary
350
595
  0
DICTIONARY
  5
D
102
{ACAD_REACTORS
330
C
102
}
330
C
100
AcDbDictionary
281
     1
  0
DICTIONARY
  5
1A
102
{ACAD_REACTORS
330
C
102
}
330
C
100
AcDbDictionary
281
     1
  3
Layout1
350
1E
  3
Layout2
350
26
  3
Model
350
22
  0
DICTIONARY
  5
3B
102
{ACAD_REACTORS
330
C
102
}
330
C
100
AcDbDictionary
281
     1
  3
ByBlock
350
3D
  3
ByLayer
350
3C
  3
Global
350
3E
  0
DICTIONARY
  5
597
102
{ACAD_REACTORS
330
C
102
}
330
C
100
AcDbDictionary
281
     1
  0
DICTIONARY
  5
17
102
{ACAD_REACTORS
330
C
102
}
330
C
100
AcDbDictionary
281
     1
  3
Standard
350
18
  0
DICTIONARY
  5
19
102
{ACAD_REACTORS
330
C
102
}
330
C
100
AcDbDictionary
281
     1
  0
ACDBDICTIONARYWDFLT
  5
E
102
{ACAD_REACTORS
330
C
102
}
330
C
100
AcDbDictionary
281
     1
  3
Normal
350
F
100
AcDbDictionaryWithDefault
340
F
  0
DICTIONARY
  5
2A
102
{ACAD_REACTORS
330
C
102
}
330
C
100
AcDbDictionary
281
     1
  3
2dWireframe
350
2F
  3
3D Hidden
350
31
  3
3dWireframe
350
30
  3
Basic
350
32
  3
Brighten
350
36
  3
ColorChange
350
3A
  3
Conceptual
350
34
  3
Dim
350
35
  3
Facepattern
350
39
  3
Flat
350
2B
  3
FlatWithEdges
350
2C
  3
Gouraud
350
2D
  3
GouraudWithEdges
350
2E
  3
Linepattern
350
38
  3
Realistic
350
33
  3
Thicken
350
37
  0
DICTIONARY
  5
595
102
{ACAD_REACTORS
330
C
102
}
330
C
100
AcDbDictionary
281
     1
  3
DIMASSOC
350
598
  3
HIDETEXT
350
599
  0
LAYOUT
  5
1E
102
{ACAD_REACTORS
330
1A
102
}
330
1A
100
AcDbPlotSettings
  1

  2
none_device
  4

  6

 40
0.0
 41
0.0
 42
0.0
 43
0.0
 44
0.0
 45
0.0
 46
0.0
 47
0.0
 48
0.0
 49
0.0
140
0.0
141
0.0
142
1.0
143
1.0
 70
   688
 72
     0
 73
     0
 74
     5
  7

 75
    16
147
1.0
148
0.0
149
0.0
100
AcDbLayout
  1
Layout1
 70
     1
 71
     1
 10
0.0
 20
0.0
 11
12.0
 21
9.0
 12
0.0
 22
0.0
 32
0.0
 14
1.00000000000000E+20
 24
1.00000000000000E+20
 34
1.00000000000000E+20
 15
-1.00000000000000E+20
 25
-1.00000000000000E+20
 35
-1.00000000000000E+20
146
0.0
 13
0.0
 23
0.0
 33
0.0
 16
1.0
 26
0.0
 36
0.0
 17
0.0
 27
1.0
 37
0.0
 76
     0
330
1B
  0
LAYOUT
  5
26
102
{ACAD_REACTORS
330
1A
102
}
330
1A
100
AcDbPlotSettings
  1

  2
none_device
  4

  6

 40
0.0
 41
0.0
 42
0.0
 43
0.0
 44
0.0
 45
0.0
 46
0.0
 47
0.0
 48
0.0
 49
0.0
140
0.0
141
0.0
142
1.0
143
1.0
 70
   688
 72
     0
 73
     0
 74
     5
  7

 75
    16
147
1.0
148
0.0
149
0.0
100
AcDbLayout
  1
Layout2
 70
     1
 71
     2
 10
0.0
 20
0.0
 11
0.0
 21
0.0
 12
0.0
 22
0.0
 32
0.0
 14
0.0
 24
0.0
 34
0.0
 15
0.0
 25
0.0
 35
0.0
146
0.0
 13
0.0
 23
0.0
 33
0.0
 16
1.0
 26
0.0
 36
0.0
 17
0.0
 27
1.0
 37
0.0
 76
     0
330
23
  0
LAYOUT
  5
22
102
{ACAD_REACTORS
330
1A
102
}
330
1A
100
AcDbPlotSettings
  1

  2
none_device
  4

  6

 40
0.0
 41
0.0
 42
0.0
 43
0.0
 44
0.0
 45
0.0
 46
0.0
 47
0.0
 48
0.0
 49
0.0
140
0.0
141
0.0
142
1.0
143
1.0
 70
  1712
 72
     0
 73
     0
 74
     0
  7

 75
     0
147
1.0
148
0.0
149
0.0
100
AcDbLayout
  1
Model
 70
     1
 71
     0
 10
0.0
 20
0.0
 11
12.0
 21
9.0
 12
0.0
 22
0.0
 32
0.0
 14
0.0
 24
0.0
 34
0.0
 15
297.0000000000001
 25
210.0000000000001
 35
0.0
146
0.0
 13
0.0
 23
0.0
 33
0.0
 16
1.0
 26
0.0
 36
0.0
 17
0.0
 27
1.0
 37
0.0
 76
     0
330
1F
331
29
  0
MATERIAL
  5
3D
102
{ACAD_REACTORS
330
3B
102
}
102
{ACAD_XDICTIONARY
360
5BC
102
}
330
3B
100
AcDbMaterial
  1
ByBlock
  0
MATERIAL
  5
3C
102
{ACAD_REACTORS
330
3B
102
}
102
{ACAD_XDICTIONARY
360
5BA
102
}
330
3B
100
AcDbMaterial
  1
ByLayer
  0
MATERIAL
  5
3E
102
{ACAD_REACTORS
330
3B
102
}
102
{ACAD_XDICTIONARY
360
5BE
102
}
330
3B
100
AcDbMaterial
  1
Global
  0
MLINESTYLE
  5
18
102
{ACAD_REACTORS
330
17
102
}
330
17
100
AcDbMlineStyle
  2
Standard
 70
     0
  3

 62
   256
 51
90.0
 52
90.0
 71
     2
 49
0.5
 62
   256
  6
BYLAYER
 49
-0.5
 62
   256
  6
BYLAYER
  0
ACDBPLACEHOLDER
  5
F
102
{ACAD_REACTORS
330
E
102
}
330
E
  0
VISUALSTYLE
  5
2F
102
{ACAD_REACTORS
330
2A
102
}
102
{ACAD_XDICTIONARY
360
5A2
102
}
330
2A
100
AcDbVisualStyle
  2
2dWireframe
 70
     4
 71
     0
 72
     2
 73
     0
 90
        0
 40
-0.6
 41
-30.0
 62
     5
 63
     7
 74
     1
 91
        4
 64
     7
 65
   257
 75
     1
175
     1
 42
1.0
 92
        0
 66
   257
 43
1.0
 76
     1
 77
     6
 78
     2
 67
     7
 79
     5
170
     0
171
     0
290
     0
174
     0
 93
        1
 44
0.0
173
     0
291
     0
 45
0.0
1001
ACAD
1000
AcDbSavedByObjectVersion
1070
     0
  0
VISUALSTYLE
  5
31
102
{ACAD_REACTORS
330
2A
102
}
102
{ACAD_XDICTIONARY
360
5A6
102
}
330
2A
100
AcDbVisualStyle
  2
3D Hidden
 70
     6
 71
     1
 72
     2
 73
     2
 90
        0
 40
-0.6
 41
-30.0
 62
     5
 63
     7
 74
     2
 91
        2
 64
     7
 65
   257
 75
     2
175
     1
 42
40.0
 92
        0
 66
   257
 43
1.0
 76
     1
 77
     6
 78
     2
 67
     7
 79
     3
170
     0
171
     0
290
     0
174
     0
 93
        1
 44
0.0
173
     0
291
     0
 45
0.0
1001
ACAD
1000
AcDbSavedByObjectVersion
1070
     0
  0
VISUALSTYLE
  5
30
102
{ACAD_REACTORS
330
2A
102
}
102
{ACAD_XDICTIONARY
360
5A4
102
}
330
2A
100
AcDbVisualStyle
  2
3dWireframe
 70
     5
 71
     0
 72
     2
 73
     0
 90
        0
 40
-0.6
 41
-30.0
 62
     5
 63
     7
 74
     1
 91
        4
 64
     7
 65
   257
 75
     1
175
     1
 42
1.0
 92
        0
 66
   257
 43
1.0
 76
     1
 77
     6
 78
     2
 67
     7
 79
     5
170
     0
171
     0
290
     0
174
     0
 93
        1
 44
0.0
173
     0
291
     0
 45
0.0
1001
ACAD
1000
AcDbSavedByObjectVersion
1070
     0
  0
VISUALSTYLE
  5
32
102
{ACAD_REACTORS
330
2A
102
}
102
{ACAD_XDICTIONARY
360
5A8
102
}
330
2A
100
AcDbVisualStyle
  2
Basic
 70
     7
 71
     1
 72
     0
 73
     1
 90
        0
 40
-0.6
 41
-30.0
 62
     5
 63
     7
 74
     0
 91
        4
 64
     7
 65
   257
 75
     1
175
     1
 42
1.0
 92
        8
 66
     7
 43
1.0
 76
     1
 77
     6
 78
     2
 67
     7
 79
     5
170
     0
171
     0
290
     0
174
     0
 93
        1
 44
0.0
173
     0
291
     1
 45
0.0
1001
ACAD
1000
AcDbSavedByObjectVersion
1070
     0
  0
VISUALSTYLE
  5
36
102
{ACAD_REACTORS
330
2A
102
}
102
{ACAD_XDICTIONARY
360
5B0
102
}
330
2A
100
AcDbVisualStyle
  2
Brighten
 70
    12
 71
     2
 72
     2
 73
     0
 90
        0
 40
-0.6
 41
-30.0
 62
     5
 63
     7
 74
     1
 91
        4
 64
     7
 65
   257
 75
     1
175
     1
 42
1.0
 92
        8
 66
     7
 43
1.0
 76
     1
 77
     6
 78
     2
 67
     7
 79
     5
170
     0
171
     0
290
     0
174
     0
 93
        1
 44
50.0
173
     0
291
     1
 45
0.0
1001
ACAD
1000
AcDbSavedByObjectVersion
1070
     0
  0
VISUALSTYLE
  5
3A
102
{ACAD_REACTORS
330
2A
102
}
102
{ACAD_XDICTIONARY
360
5B8
102
}
330
2A
100
AcDbVisualStyle
  2
ColorChange
 70
    16
 71
     2
 72
     2
 73
     3
 90
        0
 40
-0.6
 41
-30.0
 62
     5
 63
     8
 74
     1
 91
        4
 64
     7
 65
   257
 75
     1
175
     1
 42
1.0
 92
        8
 66
     8
 43
1.0
 76
     1
 77
     6
 78
     2
 67
     7
 79
     5
170
     0
171
     0
290
     0
174
     0
 93
        1
 44
0.0
173
     0
291
     1
 45
0.0
1001
ACAD
1000
AcDbSavedByObjectVersion
1070
     0
  0
VISUALSTYLE
  5
34
102
{ACAD_REACTORS
330
2A
102
}
102
{ACAD_XDICTIONARY
360
5AC
102
}
330
2A
100
AcDbVisualStyle
  2
Conceptual
 70
     9
 71
     3
 72
     2
 73
     0
 90
        0
 40
-0.6
 41
-30.0
 62
     5
 63
     7
 74
     2
 91
        2
 64
     7
 65
   257
 75
     1
175
     1
 42
40.0
 92
        8
 66
     7
 43
1.0
 76
     1
 77
     6
 78
     2
 67
     7
 79
     3
170
     0
171
     0
290
     0
174
     0
 93
        1
 44
0.0
173
     0
291
     0
 45
0.0
1001
ACAD
1000
AcDbSavedByObjectVersion
1070
     0
  0
VISUALSTYLE
  5
35
102
{ACAD_REACTORS
330
2A
102
}
102
{ACAD_XDICTIONARY
360
5AE
102
}
330
2A
100
AcDbVisualStyle
  2
Dim
 70
    11
 71
     2
 72
     2
 73
     0
 90
        0
 40
-0.6
 41
-30.0
 62
     5
 63
     7
 74
     1
 91
        4
 64
     7
 65
   257
 75
     1
175
     1
 42
1.0
 92
        8
 66
     7
 43
1.0
 76
     1
 77
     6
 78
     2
 67
     7
 79
     5
170
     0
171
     0
290
     0
174
     0
 93
        1
 44
-50.0
173
     0
291
     1
 45
0.0
1001
ACAD
1000
AcDbSavedByObjectVersion
1070
     0
  0
VISUALSTYLE
  5
39
102
{ACAD_REACTORS
330
2A
102
}
102
{ACAD_XDICTIONARY
360
5B6
102
}
330
2A
100
AcDbVisualStyle
  2
Facepattern
 70
    15
 71
     2
 72
     2
 73
     0
 90
        0
 40
-0.6
 41
-30.0
 62
     5
 63
     7
 74
     1
 91
        4
 64
     7
 65
   257
 75
     1
175
     1
 42
1.0
 92
        8
 66
     7
 43
1.0
 76
     1
 77
     6
 78
     2
 67
     7
 79
     5
170
     0
171
     0
290
     0
174
     0
 93
        1
 44
0.0
173
     0
291
     1
 45
0.0
1001
ACAD
1000
AcDbSavedByObjectVersion
1070
     0
  0
VISUALSTYLE
  5
2B
102
{ACAD_REACTORS
330
2A
102
}
102
{ACAD_XDICTIONARY
360
59A
102
}
330
2A
100
AcDbVisualStyle
  2
Flat
 70
     0
 71
     2
 72
     1
 73
     1
 90
        2
 40
-0.6
 41
30.0
 62
     5
 63
     7
 74
     0
 91
        4
 64
     7
 65
   257
 75
     1
175
     1
 42
1.0
 92
        8
 66
     7
 43
1.0
 76
     1
 77
     6
 78
     2
 67
     7
 79
     5
170
     0
171
     0
290
     0
174
     0
 93
       13
 44
0.0
173
     0
291
     1
 45
0.0
1001
ACAD
1000
AcDbSavedByObjectVersion
1070
     0
  0
VISUALSTYLE
  5
2C
102
{ACAD_REACTORS
330
2A
102
}
102
{ACAD_XDICTIONARY
360
59C
102
}
330
2A
100
AcDbVisualStyle
  2
FlatWithEdges
 70
     1
 71
     2
 72
     1
 73
     1
 90
        2
 40
-0.6
 41
30.0
 62
     5
 63
     7
 74
     1
 91
        4
 64
     7
 65
   257
 75
     1
175
     1
 42
1.0
 92
        0
 66
   257
 43
1.0
 76
     1
 77
     6
 78
     2
 67
     7
 79
     5
170
     0
171
     0
290
     0
174
     0
 93
       13
 44
0.0
173
     0
291
     1
 45
0.0
1001
ACAD
1000
AcDbSavedByObjectVersion
1070
     0
  0
VISUALSTYLE
  5
2D
102
{ACAD_REACTORS
330
2A
102
}
102
{ACAD_XDICTIONARY
360
59E
102
}
330
2A
100
AcDbVisualStyle
  2
Gouraud
 70
     2
 71
     2
 72
     2
 73
     1
 90
        2
 40
-0.6
 41
30.0
 62
     5
 63
     7
 74
     0
 91
        4
 64
     7
 65
   257
 75
     1
175
     1
 42
1.0
 92
        0
 66
     7
 43
1.0
 76
     1
 77
     6
 78
     2
 67
     7
 79
     5
170
     0
171
     0
290
     0
174
     0
 93
       13
 44
0.0
173
     0
291
     1
 45
0.0
1001
ACAD
1000
AcDbSavedByObjectVersion
1070
     0
  0
VISUALSTYLE
  5
2E
102
{ACAD_REACTORS
330
2A
102
}
102
{ACAD_XDICTIONARY
360
5A0
102
}
330
2A
100
AcDbVisualStyle
  2
GouraudWithEdges
 70
     3
 71
     2
 72
     2
 73
     1
 90
        2
 40
-0.6
 41
30.0
 62
     5
 63
     7
 74
     1
 91
        4
 64
     7
 65
   257
 75
     1
175
     1
 42
1.0
 92
        0
 66
   257
 43
1.0
 76
     1
 77
     6
 78
     2
 67
     7
 79
     5
170
     0
171
     0
290
     0
174
     0
 93
       13
 44
0.0
173
     0
291
     1
 45
0.0
1001
ACAD
1000
AcDbSavedByObjectVersion
1070
     0
  0
VISUALSTYLE
  5
38
102
{ACAD_REACTORS
330
2A
102
}
102
{ACAD_XDICTIONARY
360
5B4
102
}
330
2A
100
AcDbVisualStyle
  2
Linepattern
 70
    14
 71
     2
 72
     2
 73
     0
 90
        0
 40
-0.6
 41
-30.0
 62
     5
 63
     7
 74
     1
 91
        4
 64
     7
 65
   257
 75
     7
175
     7
 42
1.0
 92
        8
 66
     7
 43
1.0
 76
     1
 77
     6
 78
     2
 67
     7
 79
     5
170
     0
171
     0
290
     0
174
     0
 93
        1
 44
0.0
173
     0
291
     1
 45
0.0
1001
ACAD
1000
AcDbSavedByObjectVersion
1070
     0
  0
VISUALSTYLE
  5
33
102
{ACAD_REACTORS
330
2A
102
}
102
{ACAD_XDICTIONARY
360
5AA
102
}
330
2A
100
AcDbVisualStyle
  2
Realistic
 70
     8
 71
     2
 72
     2
 73
     0
 90
        0
 40
-0.6
 41
-30.0
 62
     5
 63
     7
 74
     1
 91
        0
 64
     7
 65
   257
 75
     1
175
     1
 42
1.0
 92
        8
 66
     8
 43
1.0
 76
     1
 77
     6
 78
     2
 67
     7
 79
     5
170
     0
171
     0
290
     0
174
     0
 93
       13
 44
0.0
173
     0
291
     0
 45
0.0
1001
ACAD
1000
AcDbSavedByObjectVersion
1070
     0
  0
VISUALSTYLE
  5
37
102
{ACAD_REACTORS
330
2A
102
}
102
{ACAD_XDICTIONARY
360
5B2
102
}
330
2A
100
AcDbVisualStyle
  2
Thicken
 70
    13
 71
     2
 72
     2
 73
     0
 90
        0
 40
-0.6
 41
-30.0
 62
     5
 63
     7
 74
     1
 91
        4
 64
     7
 65
   257
 75
     1
175
     1
 42
1.0
 92
       12
 66
     7
 43
1.0
 76
     1
 77
     6
 78
     2
 67
     7
 79
     5
170
     0
171
     0
290
     0
174
     0
 93
        1
 44
0.0
173
     0
291
     1
 45
0.0
1001
ACAD
1000
AcDbSavedByObjectVersion
1070
     0
  0
DICTIONARYVAR
  5
598
102
{ACAD_REACTORS
330
595
102
}
330
595
100
DictionaryVariables
280
     0
  1
2
  0
DICTIONARYVAR
  5
599
102
{ACAD_REACTORS
330
595
102
}
330
595
100
DictionaryVariables
280
     0
  1
1
  0
DICTIONARY
  5
5BC
330
3D
100
AcDbDictionary
280
     1
281
     1
  3
ACAD_XREC_ROUNDTRIP
360
5BD
  0
DICTIONARY
  5
5BA
330
3C
100
AcDbDictionary
280
     1
281
     1
  3
ACAD_XREC_ROUNDTRIP
360
5BB
  0
DICTIONARY
  5
5BE
330
3E
100
AcDbDictionary
280
     1
281
     1
  3
ACAD_XREC_ROUNDTRIP
360
5BF
  0
DICTIONARY
  5
5A2
330
2F
100
AcDbDictionary
280
     1
281
     1
  3
ACAD_XREC_ROUNDTRIP
360
5A3
  0
DICTIONARY
  5
5A6
330
31
100
AcDbDictionary
280
     1
281
     1
  3
ACAD_XREC_ROUNDTRIP
360
5A7
  0
DICTIONARY
  5
5A4
330
30
100
AcDbDictionary
280
     1
281
     1
  3
ACAD_XREC_ROUNDTRIP
360
5A5
  0
DICTIONARY
  5
5A8
330
32
100
AcDbDictionary
280
     1
281
     1
  3
ACAD_XREC_ROUNDTRIP
360
5A9
  0
DICTIONARY
  5
5B0
330
36
100
AcDbDictionary
280
     1
281
     1
  3
ACAD_XREC_ROUNDTRIP
360
5B1
  0
DICTIONARY
  5
5B8
330
3A
100
AcDbDictionary
280
     1
281
     1
  3
ACAD_XREC_ROUNDTRIP
360
5B9
  0
DICTIONARY
  5
5AC
330
34
100
AcDbDictionary
280
     1
281
     1
  3
ACAD_XREC_ROUNDTRIP
360
5AD
  0
DICTIONARY
  5
5AE
330
35
100
AcDbDictionary
280
     1
281
     1
  3
ACAD_XREC_ROUNDTRIP
360
5AF
  0
DICTIONARY
  5
5B6
330
39
100
AcDbDictionary
280
     1
281
     1
  3
ACAD_XREC_ROUNDTRIP
360
5B7
  0
DICTIONARY
  5
59A
330
2B
100
AcDbDictionary
280
     1
281
     1
  3
ACAD_XREC_ROUNDTRIP
360
59B
  0
DICTIONARY
  5
59C
330
2C
100
AcDbDictionary
280
     1
281
     1
  3
ACAD_XREC_ROUNDTRIP
360
59D
  0
DICTIONARY
  5
59E
330
2D
100
AcDbDictionary
280
     1
281
     1
  3
ACAD_XREC_ROUNDTRIP
360
59F
  0
DICTIONARY
  5
5A0
330
2E
100
AcDbDictionary
280
     1
281
     1
  3
ACAD_XREC_ROUNDTRIP
360
5A1
  0
DICTIONARY
  5
5B4
330
38
100
AcDbDictionary
280
     1
281
     1
  3
ACAD_XREC_ROUNDTRIP
360
5B5
  0
DICTIONARY
  5
5AA
330
33
100
AcDbDictionary
280
     1
281
     1
  3
ACAD_XREC_ROUNDTRIP
360
5AB
  0
DICTIONARY
  5
5B2
330
37
100
AcDbDictionary
280
     1
281
     1
  3
ACAD_XREC_ROUNDTRIP
360
5B3
  0
XRECORD
  5
5BD
102
{ACAD_REACTORS
330
5BC
102
}
330
5BC
100
AcDbXrecord
280
     1
102
MATERIAL
148
0.0
149
0.0
149
0.0
 93
        0
 94
      127
282
     0
 72
     1
 77
     1
171
     1
175
     1
179
     1
273
     0
  0
XRECORD
  5
5BB
102
{ACAD_REACTORS
330
5BA
102
}
330
5BA
100
AcDbXrecord
280
     1
102
MATERIAL
148
0.0
149
0.0
149
0.0
 93
        0
 94
      127
282
     0
 72
     1
 77
     1
171
     1
175
     1
179
     1
273
     0
  0
XRECORD
  5
5BF
102
{ACAD_REACTORS
330
5BE
102
}
330
5BE
100
AcDbXrecord
280
     1
102
MATERIAL
148
0.0
149
0.0
149
0.0
 93
        0
 94
      127
282
     0
 72
     1
 77
     1
171
     1
175
     1
179
     1
273
     0
  0
XRECORD
  5
5A3
102
{ACAD_REACTORS
330
5A2
102
}
330
5A2
100
AcDbXrecord
280
     1
102
RTVSPropertyOp0
 70
     1
102
RTVSPropertyOp1
 70
     1
102
RTVSPropertyOp2
 70
     1
102
RTVSPropertyOp3
 70
     1
102
RTVSPropertyOp4
 70
     1
102
RTVSPropertyOp5
 70
     1
102
RTVSPropertyOp6
 70
     1
102
RTVSPropertyOp7
 70
     1
102
RTVSPropertyOp8
 70
     1
102
RTVSPropertyOp9
 70
     1
102
RTVSPropertyOp10
 70
     1
102
RTVSPropertyOp11
 70
     1
102
RTVSPropertyOp12
 70
     1
102
RTVSPropertyOp13
 70
     1
102
RTVSPropertyOp14
 70
     1
102
RTVSPropertyOp15
 70
     1
102
RTVSPropertyOp16
 70
     1
102
RTVSPropertyOp17
 70
     1
102
RTVSPropertyOp18
 70
     1
102
RTVSPropertyOp19
 70
     1
102
RTVSPropertyOp20
 70
     1
102
RTVSPropertyOp21
 70
     1
102
RTVSPropertyOp22
 70
     1
102
RTVSPropertyOp23
 70
     1
102
RTVSPropertyOp24
 70
     1
102
RTVSPropertyOp25
 70
     1
102
RTVSPropertyOp26
 70
     1
102
RTVSPropertyOp27
 70
     1
102
RTVSPropertyOp28
 70
     1
102
RTVSPropertyOp29
 70
     1
102
RTVSPropertyOp30
 70
     1
102
RTVSPropertyOp31
 70
     1
102
RTVSPropertyOp32
 70
     1
  0
XRECORD
  5
5A7
102
{ACAD_REACTORS
330
5A6
102
}
330
5A6
100
AcDbXrecord
280
     1
102
RTVSPropertyOp0
 70
     1
102
RTVSPropertyOp1
 70
     1
102
RTVSPropertyOp2
 70
     1
102
RTVSPropertyOp3
 70
     1
102
RTVSPropertyOp4
 70
     1
102
RTVSPropertyOp5
 70
     1
102
RTVSPropertyOp6
 70
     1
102
RTVSPropertyOp7
 70
     1
102
RTVSPropertyOp8
 70
     1
102
RTVSPropertyOp9
 70
     1
102
RTVSPropertyOp10
 70
     1
102
RTVSPropertyOp11
 70
     1
102
RTVSPropertyOp12
 70
     1
102
RTVSPropertyOp13
 70
     1
102
RTVSPropertyOp14
 70
     1
102
RTVSPropertyOp15
 70
     1
102
RTVSPropertyOp16
 70
     1
102
RTVSPropertyOp17
 70
     1
102
RTVSPropertyOp18
 70
     1
102
RTVSPropertyOp19
 70
     1
102
RTVSPropertyOp20
 70
     1
102
RTVSPropertyOp21
 70
     1
102
RTVSPropertyOp22
 70
     1
102
RTVSPropertyOp23
 70
     1
102
RTVSPropertyOp24
 70
     1
102
RTVSPropertyOp25
 70
     1
102
RTVSPropertyOp26
 70
     1
102
RTVSPropertyOp27
 70
     1
102
RTVSPropertyOp28
 70
     1
102
RTVSPropertyOp29
 70
     1
102
RTVSPropertyOp30
 70
     1
102
RTVSPropertyOp31
 70
     1
102
RTVSPropertyOp32
 70
     1
  0
XRECORD
  5
5A5
102
{ACAD_REACTORS
330
5A4
102
}
330
5A4
100
AcDbXrecord
280
     1
102
RTVSPropertyOp0
 70
     1
102
RTVSPropertyOp1
 70
     1
102
RTVSPropertyOp2
 70
     1
102
RTVSPropertyOp3
 70
     1
102
RTVSPropertyOp4
 70
     1
102
RTVSPropertyOp5
 70
     1
102
RTVSPropertyOp6
 70
     1
102
RTVSPropertyOp7
 70
     1
102
RTVSPropertyOp8
 70
     1
102
RTVSPropertyOp9
 70
     1
102
RTVSPropertyOp10
 70
     1
102
RTVSPropertyOp11
 70
     1
102
RTVSPropertyOp12
 70
     1
102
RTVSPropertyOp13
 70
     1
102
RTVSPropertyOp14
 70
     1
102
RTVSPropertyOp15
 70
     1
102
RTVSPropertyOp16
 70
     1
102
RTVSPropertyOp17
 70
     1
102
RTVSPropertyOp18
 70
     1
102
RTVSPropertyOp19
 70
     1
102
RTVSPropertyOp20
 70
     1
102
RTVSPropertyOp21
 70
     1
102
RTVSPropertyOp22
 70
     1
102
RTVSPropertyOp23
 70
     1
102
RTVSPropertyOp24
 70
     1
102
RTVSPropertyOp25
 70
     1
102
RTVSPropertyOp26
 70
     1
102
RTVSPropertyOp27
 70
     1
102
RTVSPropertyOp28
 70
     1
102
RTVSPropertyOp29
 70
     1
102
RTVSPropertyOp30
 70
     1
102
RTVSPropertyOp31
 70
     1
102
RTVSPropertyOp32
 70
     1
  0
XRECORD
  5
5A9
102
{ACAD_REACTORS
330
5A8
102
}
330
5A8
100
AcDbXrecord
280
     1
102
RTVSPropertyOp0
 70
     1
102
RTVSPropertyOp1
 70
     1
102
RTVSPropertyOp2
 70
     1
102
RTVSPropertyOp3
 70
     1
102
RTVSPropertyOp4
 70
     1
102
RTVSPropertyOp5
 70
     1
102
RTVSPropertyOp6
 70
     1
102
RTVSPropertyOp7
 70
     1
102
RTVSPropertyOp8
 70
     1
102
RTVSPropertyOp9
 70
     1
102
RTVSPropertyOp10
 70
     1
102
RTVSPropertyOp11
 70
     1
102
RTVSPropertyOp12
 70
     1
102
RTVSPropertyOp13
 70
     1
102
RTVSPropertyOp14
 70
     1
102
RTVSPropertyOp15
 70
     1
102
RTVSPropertyOp16
 70
     1
102
RTVSPropertyOp17
 70
     1
102
RTVSPropertyOp18
 70
     1
102
RTVSPropertyOp19
 70
     1
102
RTVSPropertyOp20
 70
     1
102
RTVSPropertyOp21
 70
     1
102
RTVSPropertyOp22
 70
     1
102
RTVSPropertyOp23
 70
     1
102
RTVSPropertyOp24
 70
     1
102
RTVSPropertyOp25
 70
     1
102
RTVSPropertyOp26
 70
     1
102
RTVSPropertyOp27
 70
     1
102
RTVSPropertyOp28
 70
     1
102
RTVSPropertyOp29
 70
     1
102
RTVSPropertyOp30
 70
     1
102
RTVSPropertyOp31
 70
     1
102
RTVSPropertyOp32
 70
     1
  0
XRECORD
  5
5B1
102
{ACAD_REACTORS
330
5B0
102
}
330
5B0
100
AcDbXrecord
280
     1
102
RTVSPropertyOp0
 70
     1
102
RTVSPropertyOp1
 70
     1
102
RTVSPropertyOp2
 70
     1
102
RTVSPropertyOp3
 70
     1
102
RTVSPropertyOp4
 70
     1
102
RTVSPropertyOp5
 70
     1
102
RTVSPropertyOp6
 70
     1
102
RTVSPropertyOp7
 70
     1
102
RTVSPropertyOp8
 70
     1
102
RTVSPropertyOp9
 70
     1
102
RTVSPropertyOp10
 70
     1
102
RTVSPropertyOp11
 70
     1
102
RTVSPropertyOp12
 70
     1
102
RTVSPropertyOp13
 70
     1
102
RTVSPropertyOp14
 70
     1
102
RTVSPropertyOp15
 70
     1
102
RTVSPropertyOp16
 70
     1
102
RTVSPropertyOp17
 70
     1
102
RTVSPropertyOp18
 70
     1
102
RTVSPropertyOp19
 70
     1
102
RTVSPropertyOp20
 70
     1
102
RTVSPropertyOp21
 70
     1
102
RTVSPropertyOp22
 70
     1
102
RTVSPropertyOp23
 70
     1
102
RTVSPropertyOp24
 70
     1
102
RTVSPropertyOp25
 70
     1
102
RTVSPropertyOp26
 70
     1
102
RTVSPropertyOp27
 70
     1
102
RTVSPropertyOp28
 70
     1
102
RTVSPropertyOp29
 70
     1
102
RTVSPropertyOp30
 70
     1
102
RTVSPropertyOp31
 70
     1
102
RTVSPropertyOp32
 70
     1
  0
XRECORD
  5
5B9
102
{ACAD_REACTORS
330
5B8
102
}
330
5B8
100
AcDbXrecord
280
     1
102
RTVSPropertyOp0
 70
     1
102
RTVSPropertyOp1
 70
     1
102
RTVSPropertyOp2
 70
     1
102
RTVSPropertyOp3
 70
     1
102
RTVSPropertyOp4
 70
     1
102
RTVSPropertyOp5
 70
     1
102
RTVSPropertyOp6
 70
     1
102
RTVSPropertyOp7
 70
     1
102
RTVSPropertyOp8
 70
     1
102
RTVSPropertyOp9
 70
     1
102
RTVSPropertyOp10
 70
     1
102
RTVSPropertyOp11
 70
     1
102
RTVSPropertyOp12
 70
     1
102
RTVSPropertyOp13
 70
     1
102
RTVSPropertyOp14
 70
     1
102
RTVSPropertyOp15
 70
     1
102
RTVSPropertyOp16
 70
     1
102
RTVSPropertyOp17
 70
     1
102
RTVSPropertyOp18
 70
     1
102
RTVSPropertyOp19
 70
     1
102
RTVSPropertyOp20
 70
     1
102
RTVSPropertyOp21
 70
     1
102
RTVSPropertyOp22
 70
     1
102
RTVSPropertyOp23
 70
     1
102
RTVSPropertyOp24
 70
     1
102
RTVSPropertyOp25
 70
     1
102
RTVSPropertyOp26
 70
     1
102
RTVSPropertyOp27
 70
     1
102
RTVSPropertyOp28
 70
     1
102
RTVSPropertyOp29
 70
     1
102
RTVSPropertyOp30
 70
     1
102
RTVSPropertyOp31
 70
     1
102
RTVSPropertyOp32
 70
     1
  0
XRECORD
  5
5AD
102
{ACAD_REACTORS
330
5AC
102
}
330
5AC
100
AcDbXrecord
280
     1
102
RTVSPropertyOp0
 70
     1
102
RTVSPropertyOp1
 70
     1
102
RTVSPropertyOp2
 70
     1
102
RTVSPropertyOp3
 70
     1
102
RTVSPropertyOp4
 70
     1
102
RTVSPropertyOp5
 70
     1
102
RTVSPropertyOp6
 70
     1
102
RTVSPropertyOp7
 70
     1
102
RTVSPropertyOp8
 70
     1
102
RTVSPropertyOp9
 70
     1
102
RTVSPropertyOp10
 70
     1
102
RTVSPropertyOp11
 70
     1
102
RTVSPropertyOp12
 70
     1
102
RTVSPropertyOp13
 70
     1
102
RTVSPropertyOp14
 70
     1
102
RTVSPropertyOp15
 70
     1
102
RTVSPropertyOp16
 70
     1
102
RTVSPropertyOp17
 70
     1
102
RTVSPropertyOp18
 70
     1
102
RTVSPropertyOp19
 70
     1
102
RTVSPropertyOp20
 70
     1
102
RTVSPropertyOp21
 70
     1
102
RTVSPropertyOp22
 70
     1
102
RTVSPropertyOp23
 70
     1
102
RTVSPropertyOp24
 70
     1
102
RTVSPropertyOp25
 70
     1
102
RTVSPropertyOp26
 70
     1
102
RTVSPropertyOp27
 70
     1
102
RTVSPropertyOp28
 70
     1
102
RTVSPropertyOp29
 70
     1
102
RTVSPropertyOp30
 70
     1
102
RTVSPropertyOp31
 70
     1
102
RTVSPropertyOp32
 70
     1
  0
XRECORD
  5
5AF
102
{ACAD_REACTORS
330
5AE
102
}
330
5AE
100
AcDbXrecord
280
     1
102
RTVSPropertyOp0
 70
     1
102
RTVSPropertyOp1
 70
     1
102
RTVSPropertyOp2
 70
     1
102
RTVSPropertyOp3
 70
     1
102
RTVSPropertyOp4
 70
     1
102
RTVSPropertyOp5
 70
     1
102
RTVSPropertyOp6
 70
     1
102
RTVSPropertyOp7
 70
     1
102
RTVSPropertyOp8
 70
     1
102
RTVSPropertyOp9
 70
     1
102
RTVSPropertyOp10
 70
     1
102
RTVSPropertyOp11
 70
     1
102
RTVSPropertyOp12
 70
     1
102
RTVSPropertyOp13
 70
     1
102
RTVSPropertyOp14
 70
     1
102
RTVSPropertyOp15
 70
     1
102
RTVSPropertyOp16
 70
     1
102
RTVSPropertyOp17
 70
     1
102
RTVSPropertyOp18
 70
     1
102
RTVSPropertyOp19
 70
     1
102
RTVSPropertyOp20
 70
     1
102
RTVSPropertyOp21
 70
     1
102
RTVSPropertyOp22
 70
     1
102
RTVSPropertyOp23
 70
     1
102
RTVSPropertyOp24
 70
     1
102
RTVSPropertyOp25
 70
     1
102
RTVSPropertyOp26
 70
     1
102
RTVSPropertyOp27
 70
     1
102
RTVSPropertyOp28
 70
     1
102
RTVSPropertyOp29
 70
     1
102
RTVSPropertyOp30
 70
     1
102
RTVSPropertyOp31
 70
     1
102
RTVSPropertyOp32
 70
     1
  0
XRECORD
  5
5B7
102
{ACAD_REACTORS
330
5B6
102
}
330
5B6
100
AcDbXrecord
280
     1
102
RTVSPropertyOp0
 70
     1
102
RTVSPropertyOp1
 70
     1
102
RTVSPropertyOp2
 70
     1
102
RTVSPropertyOp3
 70
     1
102
RTVSPropertyOp4
 70
     1
102
RTVSPropertyOp5
 70
     1
102
RTVSPropertyOp6
 70
     1
102
RTVSPropertyOp7
 70
     1
102
RTVSPropertyOp8
 70
     1
102
RTVSPropertyOp9
 70
     1
102
RTVSPropertyOp10
 70
     1
102
RTVSPropertyOp11
 70
     1
102
RTVSPropertyOp12
 70
     1
102
RTVSPropertyOp13
 70
     1
102
RTVSPropertyOp14
 70
     1
102
RTVSPropertyOp15
 70
     1
102
RTVSPropertyOp16
 70
     1
102
RTVSPropertyOp17
 70
     1
102
RTVSPropertyOp18
 70
     1
102
RTVSPropertyOp19
 70
     1
102
RTVSPropertyOp20
 70
     1
102
RTVSPropertyOp21
 70
     1
102
RTVSPropertyOp22
 70
     1
102
RTVSPropertyOp23
 70
     1
102
RTVSPropertyOp24
 70
     1
102
RTVSPropertyOp25
 70
     1
102
RTVSPropertyOp26
 70
     1
102
RTVSPropertyOp27
 70
     1
102
RTVSPropertyOp28
 70
     1
102
RTVSPropertyOp29
 70
     1
102
RTVSPropertyOp30
 70
     1
102
RTVSPropertyOp31
 70
     1
102
RTVSPropertyOp32
 70
     1
  0
XRECORD
  5
59B
102
{ACAD_REACTORS
330
59A
102
}
330
59A
100
AcDbXrecord
280
     1
102
RTVSPropertyOp0
 70
     1
102
RTVSPropertyOp1
 70
     1
102
RTVSPropertyOp2
 70
     1
102
RTVSPropertyOp3
 70
     1
102
RTVSPropertyOp4
 70
     1
102
RTVSPropertyOp5
 70
     1
102
RTVSPropertyOp6
 70
     1
102
RTVSPropertyOp7
 70
     1
102
RTVSPropertyOp8
 70
     1
102
RTVSPropertyOp9
 70
     1
102
RTVSPropertyOp10
 70
     1
102
RTVSPropertyOp11
 70
     1
102
RTVSPropertyOp12
 70
     1
102
RTVSPropertyOp13
 70
     1
102
RTVSPropertyOp14
 70
     1
102
RTVSPropertyOp15
 70
     1
102
RTVSPropertyOp16
 70
     1
102
RTVSPropertyOp17
 70
     1
102
RTVSPropertyOp18
 70
     1
102
RTVSPropertyOp19
 70
     1
102
RTVSPropertyOp20
 70
     1
102
RTVSPropertyOp21
 70
     1
102
RTVSPropertyOp22
 70
     1
102
RTVSPropertyOp23
 70
     1
102
RTVSPropertyOp24
 70
     1
102
RTVSPropertyOp25
 70
     1
102
RTVSPropertyOp26
 70
     1
102
RTVSPropertyOp27
 70
     1
102
RTVSPropertyOp28
 70
     1
102
RTVSPropertyOp29
 70
     1
102
RTVSPropertyOp30
 70
     1
102
RTVSPropertyOp31
 70
     1
102
RTVSPropertyOp32
 70
     1
  0
XRECORD
  5
59D
102
{ACAD_REACTORS
330
59C
102
}
330
59C
100
AcDbXrecord
280
     1
102
RTVSPropertyOp0
 70
     1
102
RTVSPropertyOp1
 70
     1
102
RTVSPropertyOp2
 70
     1
102
RTVSPropertyOp3
 70
     1
102
RTVSPropertyOp4
 70
     1
102
RTVSPropertyOp5
 70
     1
102
RTVSPropertyOp6
 70
     1
102
RTVSPropertyOp7
 70
     1
102
RTVSPropertyOp8
 70
     1
102
RTVSPropertyOp9
 70
     1
102
RTVSPropertyOp10
 70
     1
102
RTVSPropertyOp11
 70
     1
102
RTVSPropertyOp12
 70
     1
102
RTVSPropertyOp13
 70
     1
102
RTVSPropertyOp14
 70
     1
102
RTVSPropertyOp15
 70
     1
102
RTVSPropertyOp16
 70
     1
102
RTVSPropertyOp17
 70
     1
102
RTVSPropertyOp18
 70
     1
102
RTVSPropertyOp19
 70
     1
102
RTVSPropertyOp20
 70
     1
102
RTVSPropertyOp21
 70
     1
102
RTVSPropertyOp22
 70
     1
102
RTVSPropertyOp23
 70
     1
102
RTVSPropertyOp24
 70
     1
102
RTVSPropertyOp25
 70
     1
102
RTVSPropertyOp26
 70
     1
102
RTVSPropertyOp27
 70
     1
102
RTVSPropertyOp28
 70
     1
102
RTVSPropertyOp29
 70
     1
102
RTVSPropertyOp30
 70
     1
102
RTVSPropertyOp31
 70
     1
102
RTVSPropertyOp32
 70
     1
  0
XRECORD
  5
59F
102
{ACAD_REACTORS
330
59E
102
}
330
59E
100
AcDbXrecord
280
     1
102
RTVSPropertyOp0
 70
     1
102
RTVSPropertyOp1
 70
     1
102
RTVSPropertyOp2
 70
     1
102
RTVSPropertyOp3
 70
     1
102
RTVSPropertyOp4
 70
     1
102
RTVSPropertyOp5
 70
     1
102
RTVSPropertyOp6
 70
     1
102
RTVSPropertyOp7
 70
     1
102
RTVSPropertyOp8
 70
     1
102
RTVSPropertyOp9
 70
     1
102
RTVSPropertyOp10
 70
     1
102
RTVSPropertyOp11
 70
     1
102
RTVSPropertyOp12
 70
     1
102
RTVSPropertyOp13
 70
     1
102
RTVSPropertyOp14
 70
     1
102
RTVSPropertyOp15
 70
     1
102
RTVSPropertyOp16
 70
     1
102
RTVSPropertyOp17
 70
     1
102
RTVSPropertyOp18
 70
     1
102
RTVSPropertyOp19
 70
     1
102
RTVSPropertyOp20
 70
     1
102
RTVSPropertyOp21
 70
     1
102
RTVSPropertyOp22
 70
     1
102
RTVSPropertyOp23
 70
     1
102
RTVSPropertyOp24
 70
     1
102
RTVSPropertyOp25
 70
     1
102
RTVSPropertyOp26
 70
     1
102
RTVSPropertyOp27
 70
     1
102
RTVSPropertyOp28
 70
     1
102
RTVSPropertyOp29
 70
     1
102
RTVSPropertyOp30
 70
     1
102
RTVSPropertyOp31
 70
     1
102
RTVSPropertyOp32
 70
     1
  0
XRECORD
  5
5A1
102
{ACAD_REACTORS
330
5A0
102
}
330
5A0
100
AcDbXrecord
280
     1
102
RTVSPropertyOp0
 70
     1
102
RTVSPropertyOp1
 70
     1
102
RTVSPropertyOp2
 70
     1
102
RTVSPropertyOp3
 70
     1
102
RTVSPropertyOp4
 70
     1
102
RTVSPropertyOp5
 70
     1
102
RTVSPropertyOp6
 70
     1
102
RTVSPropertyOp7
 70
     1
102
RTVSPropertyOp8
 70
     1
102
RTVSPropertyOp9
 70
     1
102
RTVSPropertyOp10
 70
     1
102
RTVSPropertyOp11
 70
     1
102
RTVSPropertyOp12
 70
     1
102
RTVSPropertyOp13
 70
     1
102
RTVSPropertyOp14
 70
     1
102
RTVSPropertyOp15
 70
     1
102
RTVSPropertyOp16
 70
     1
102
RTVSPropertyOp17
 70
     1
102
RTVSPropertyOp18
 70
     1
102
RTVSPropertyOp19
 70
     1
102
RTVSPropertyOp20
 70
     1
102
RTVSPropertyOp21
 70
     1
102
RTVSPropertyOp22
 70
     1
102
RTVSPropertyOp23
 70
     1
102
RTVSPropertyOp24
 70
     1
102
RTVSPropertyOp25
 70
     1
102
RTVSPropertyOp26
 70
     1
102
RTVSPropertyOp27
 70
     1
102
RTVSPropertyOp28
 70
     1
102
RTVSPropertyOp29
 70
     1
102
RTVSPropertyOp30
 70
     1
102
RTVSPropertyOp31
 70
     1
102
RTVSPropertyOp32
 70
     1
  0
XRECORD
  5
5B5
102
{ACAD_REACTORS
330
5B4
102
}
330
5B4
100
AcDbXrecord
280
     1
102
RTVSPropertyOp0
 70
     1
102
RTVSPropertyOp1
 70
     1
102
RTVSPropertyOp2
 70
     1
102
RTVSPropertyOp3
 70
     1
102
RTVSPropertyOp4
 70
     1
102
RTVSPropertyOp5
 70
     1
102
RTVSPropertyOp6
 70
     1
102
RTVSPropertyOp7
 70
     1
102
RTVSPropertyOp8
 70
     1
102
RTVSPropertyOp9
 70
     1
102
RTVSPropertyOp10
 70
     1
102
RTVSPropertyOp11
 70
     1
102
RTVSPropertyOp12
 70
     1
102
RTVSPropertyOp13
 70
     1
102
RTVSPropertyOp14
 70
     1
102
RTVSPropertyOp15
 70
     1
102
RTVSPropertyOp16
 70
     1
102
RTVSPropertyOp17
 70
     1
102
RTVSPropertyOp18
 70
     1
102
RTVSPropertyOp19
 70
     1
102
RTVSPropertyOp20
 70
     1
102
RTVSPropertyOp21
 70
     1
102
RTVSPropertyOp22
 70
     1
102
RTVSPropertyOp23
 70
     1
102
RTVSPropertyOp24
 70
     1
102
RTVSPropertyOp25
 70
     1
102
RTVSPropertyOp26
 70
     1
102
RTVSPropertyOp27
 70
     1
102
RTVSPropertyOp28
 70
     1
102
RTVSPropertyOp29
 70
     1
102
RTVSPropertyOp30
 70
     1
102
RTVSPropertyOp31
 70
     1
102
RTVSPropertyOp32
 70
     1
  0
XRECORD
  5
5AB
102
{ACAD_REACTORS
330
5AA
102
}
330
5AA
100
AcDbXrecord
280
     1
102
RTVSPropertyOp0
 70
     1
102
RTVSPropertyOp1
 70
     1
102
RTVSPropertyOp2
 70
     1
102
RTVSPropertyOp3
 70
     1
102
RTVSPropertyOp4
 70
     1
102
RTVSPropertyOp5
 70
     1
102
RTVSPropertyOp6
 70
     1
102
RTVSPropertyOp7
 70
     1
102
RTVSPropertyOp8
 70
     1
102
RTVSPropertyOp9
 70
     1
102
RTVSPropertyOp10
 70
     1
102
RTVSPropertyOp11
 70
     1
102
RTVSPropertyOp12
 70
     1
102
RTVSPropertyOp13
 70
     1
102
RTVSPropertyOp14
 70
     1
102
RTVSPropertyOp15
 70
     1
102
RTVSPropertyOp16
 70
     1
102
RTVSPropertyOp17
 70
     1
102
RTVSPropertyOp18
 70
     1
102
RTVSPropertyOp19
 70
     1
102
RTVSPropertyOp20
 70
     1
102
RTVSPropertyOp21
 70
     1
102
RTVSPropertyOp22
 70
     1
102
RTVSPropertyOp23
 70
     1
102
RTVSPropertyOp24
 70
     1
102
RTVSPropertyOp25
 70
     1
102
RTVSPropertyOp26
 70
     1
102
RTVSPropertyOp27
 70
     1
102
RTVSPropertyOp28
 70
     1
102
RTVSPropertyOp29
 70
     1
102
RTVSPropertyOp30
 70
     1
102
RTVSPropertyOp31
 70
     1
102
RTVSPropertyOp32
 70
     1
  0
XRECORD
  5
5B3
102
{ACAD_REACTORS
330
5B2
102
}
330
5B2
100
AcDbXrecord
280
     1
102
RTVSPropertyOp0
 70
     1
102
RTVSPropertyOp1
 70
     1
102
RTVSPropertyOp2
 70
     1
102
RTVSPropertyOp3
 70
     1
102
RTVSPropertyOp4
 70
     1
102
RTVSPropertyOp5
 70
     1
102
RTVSPropertyOp6
 70
     1
102
RTVSPropertyOp7
 70
     1
102
RTVSPropertyOp8
 70
     1
102
RTVSPropertyOp9
 70
     1
102
RTVSPropertyOp10
 70
     1
102
RTVSPropertyOp11
 70
     1
102
RTVSPropertyOp12
 70
     1
102
RTVSPropertyOp13
 70
     1
102
RTVSPropertyOp14
 70
     1
102
RTVSPropertyOp15
 70
     1
102
RTVSPropertyOp16
 70
     1
102
RTVSPropertyOp17
 70
     1
102
RTVSPropertyOp18
 70
     1
102
RTVSPropertyOp19
 70
     1
102
RTVSPropertyOp20
 70
     1
102
RTVSPropertyOp21
 70
     1
102
RTVSPropertyOp22
 70
     1
102
RTVSPropertyOp23
 70
     1
102
RTVSPropertyOp24
 70
     1
102
RTVSPropertyOp25
 70
     1
102
RTVSPropertyOp26
 70
     1
102
RTVSPropertyOp27
 70
     1
102
RTVSPropertyOp28
 70
     1
102
RTVSPropertyOp29
 70
     1
102
RTVSPropertyOp30
 70
     1
102
RTVSPropertyOp31
 70
     1
102
RTVSPropertyOp32
 70
     1
  0
ENDSEC
  0
EOF
